Sommernachtsgala Grafenegg 2014 (Ravel, Strauss, Puccini, Cilea, Lehar, Heuberger, Gershwin, Rodgers, Hollaender ...) Tonkunstler-Orchester, Niederosterreich, Juanjo Mena, Angela Denoke, Ramon Vargas [2014, Orchestral / Open-Air-Konzert, HDTV 720p]


 

[Цитировать]

Sommernachtsgala Grafenegg 2014
Tonkünstler-Orchester • Niederösterreich • Juanjo Mena

-
Год выпуска: 2014
Лейбл: ORF
Жанр: Classical / Orchestral / Open-Air-Konzert
Продолжительность: 01:26:56
Режиссер: Heidelinde Haschek (bildregie)
Исполнители:
Tonkünstler-Orchester
Niederösterreich
Juanjo Mena - musikalische leitung
Solisten:
Angela Denoke - sopran
Ramón Vargas - tenor
Jean-Yves Thibaudet - klavier
Треклист:
Maurice Ravel - "Rapsodie espagnole", 4. Satz "Feria"
Richard Strauss:
- "Das Rosenband" op. 36 no.1
- "Cäcilie" op. 27 no.2
Giacomo Puccini - "E lucevan le stelle" Arie des Cavaradossi aus der Oper "Tosca"
Francesco Ciléa - "E la solita storia del Pastore" Lamento di Federico aus der Oper "L'Arlesiana"
Maurice Ravel - Konzert für Klavier und Orchester G-Dur, 3. Satz
Franz Lehár - "Warum hat jeder Frühling, ach, nur einen Mai" Duett Zarewitsch - Sonja aus der Operette "Der Zarewitsch"
Richard Heuberger - "Geh'n wir in's Chambre séparée" Duett Henri - Hortense aus der Operette "Der Opernball"
Oscar Straus - "Warum soll eine Frau kein Verhältnis haben?" aus der Operette "Eine Frau, die weiß, was sie will"
Jerónimo Giménez - Intermezzo aus der Zarzuela "La boda de Luis Alonso"
Lorenzo Barcelata - Maria Elena (Bearbeitung: Roberto Negri)
Consuelo Velázquez - Bésame mucho (Bearbeitung: Arturo Márquez)
George Gershwin - "I got rhythm" Variationen für Klavier und Orchester
Richard Rodgers:
- "I'm gonna wash that man right out of my hair" Lied der Nellie aus dem Musical "South Pacific"
- "Some enchanted evening" Lied des Emile aus dem Musical "South Pacific" Ouvertüre zum Musical "South Pacific"
Friedrich Hollaender - "Ich weiß nicht, zu wem ich gehöre!" Lied aus dem Film "Stürme der Leidenschaft" (Bearbeitung: Tal Balshai)
Edward Elgar - Marsh aus "Pomp and Circumstance"
Доп. информация:
Aus dem "Wolkenturm" in Grafenegg, Juni 2014
Sommernachtsgala Grafenegg 2014 3sat.de
Juanjo Mena from Wikipedia, the free encyclopedia
Juanjo Mena Official Site
Jean-Yves Thibaudet from Wikipedia, the free encyclopedia
Качество видео: HDTV 720p
Контейнер: TS
Видео кодек: H.264
Аудио кодек: AC3
Видео поток: Overall bit rate: 14.3 Mbps, 1280*720 (16:9), at 50.000 fps, AVC (High@L4.0) (CABAC / 6 Ref Frames)
Аудио поток: German, 256 Kbps, 48.0 KHz, 2 channels, MPEG Audio (Version 1) (Layer 2)
Аудио 2: 192 Kbps, 48.0 KHz, 2 channels, MPEG Audio (Version 1) (Layer 2)
Аудио 3: German, 448 Kbps, 48.0 KHz, 16 bits, 2 channels, AC-3
Аудио 4: Multiple languages, 192 Kbps, 48.0 KHz, 2 channels, MPEG Audio (Version 1) (Layer 2)
Источник: Digital Satellite > SkyStar HD2 (TechniSat) > raw data to HDD > Cypheros TS-Doctor > Smart Cutter (cut) > ts

MediaInfo

GeneralID : 8900 (0x22C4)Complete name : C:\rutracker.org_HD\3sat HD_Sommernachtsgala Grafenegg 2014.tsFormat : MPEG-TSFile size : 8.70 GiBDuration : 1h 26mnOverall bit rate mode : VariableOverall bit rate : 14.3 Mbps
VideoID : 6510 (0x196E)Menu ID : 11150 (0x2B8E)Format : AVCFormat/Info : Advanced Video CodecFormat profile : High@L4.0Format settings, CABAC : YesFormat settings, ReFrames : 6 framesCodec ID : 27Duration : 1h 26mnBit rate : 12.5 MbpsWidth : 1 280 pixelsHeight : 720 pixelsDisplay aspect ratio : 16:9Frame rate : 50.000 fpsColor space : YUVChroma subsampling : 4:2:0Bit depth : 8 bitsScan type : ProgressiveBits/(Pixel*Frame) : 0.272Stream size : 7.60 GiB (87%)Color primaries : BT.709Transfer characteristics : BT.709Matrix coefficients : BT.709
Audio #1ID : 6520 (0x1978)Menu ID : 11150 (0x2B8E)Format : MPEG AudioFormat version : Version 1Format profile : Layer 2Codec ID : 3Duration : 1h 26mnBit rate mode : ConstantBit rate : 256 KbpsChannel(s) : 2 channelsSampling rate : 48.0 KHzCompression mode : LossyDelay relative to video : -3msStream size : 159 MiB (2%)Language : German
Audio #2ID : 6521 (0x1979)Menu ID : 11150 (0x2B8E)Format : MPEG AudioFormat version : Version 1Format profile : Layer 2Codec ID : 3Duration : 1h 26mnBit rate mode : ConstantBit rate : 192 KbpsChannel(s) : 2 channelsSampling rate : 48.0 KHzCompression mode : LossyDelay relative to video : -3msStream size : 119 MiB (1%)
Audio #3ID : 6522 (0x197A)Menu ID : 11150 (0x2B8E)Format : AC-3Format/Info : Audio Coding 3Mode extension : CM (complete main)Format settings, Endianness : BigCodec ID : 6Duration : 1h 26mnBit rate mode : ConstantBit rate : 448 KbpsChannel(s) : 2 channelsChannel positions : Front: L RSampling rate : 48.0 KHzBit depth : 16 bitsCompression mode : LossyDelay relative to video : -23msStream size : 279 MiB (3%)Language : German
Audio #4ID : 6523 (0x197B)Menu ID : 11150 (0x2B8E)Format : MPEG AudioFormat version : Version 1Format profile : Layer 2Codec ID : 3Duration : 1h 26mnBit rate mode : ConstantBit rate : 192 KbpsChannel(s) : 2 channelsSampling rate : 48.0 KHzCompression mode : LossyDelay relative to video : -19msStream size : 119 MiB (1%)Language : Multiple languages
... info ...">

Скриншоты ... info ...


Sommernachtsgala Grafenegg
3sat zeigt eine Aufzeichnung des Galakonzertes aus dem Jahr 2014
Der majestätische Wolkenturm in Grafenegg ist alljährlich die Bühne für eine Vielzahl von Konzerten, die das Musikleben in Österreich und weit darüber hinaus bereichern.
Juanjo Mena, Barbara Rett, Jean-Yves Thibaudet, Angela Denoke und Ramon Vargas
Die Abende am Wolkenturm werden mit der traditionellen "Sommernachtsgala" eröffnet, zu der sich einige der ganz großen Stars der internationalen Musikszene in Grafenegg einfinden. Den Auftakt gaben 2014 die deutsche Sopranistin und Kammersängerin Angela Denoke, der mexikanische Tenor Ramón Vargas und der französische Pianist Jean-Yves Thibaudet. Am Pult standen Juanjo Mena, der musikalische Leiter des BBC Philharmonic Orchestra und einer der bekanntesten spanischen Dirigenten.
Die deutsche Opern-, Lied- und Konzertsängerin Angela Denoke ist auf sämtlichen Bühnen der Welt zu Gast. Der Mexikaner Ramón Vargas, erster Preisträger des Caruso Wettbewerbs, zählt zu den besten Operntenören unserer Zeit. Der Pianist Jean-Yves Thibaudet gilt als einer der Größten seines Fachs weltweit. Mit seiner internationalen Karriere sowohl im Konzertleben als auch bei CD-Einspielungen wird er bei der Presse als "a musical treasure of this age" gefeiert.
Das Programm der Sommernachtsgala 2014 reichte von Werken des Richard Strauss über Giacomo Puccini bis hin zu den Operettenkomponisten Franz Lehár und Richard Heuberger.
~ 3sat.de



Показать сообщения:    

Текущее время: 10-Дек 09:56

Часовой пояс: UTC + 3


Вы не можете начинать темы
Вы не можете отвечать на сообщения
Вы не можете редактировать свои сообщения
Вы не можете удалять свои сообщения
Вы не можете голосовать в опросах
Вы не можете прикреплять файлы к сообщениям
Вы не можете скачивать файлы