Europakonzert from Krakow (Wolfgang Amadeus Mozart, Fryderyk Chopin, Robert Schumann - Berlin Philharmonic Orchestra, Bernard Haitink, Christine Schäfer, Emanuel Ax) [1999, Classical, Blu-ray]


 

[Цитировать]

Europakonzert from Krakow
Год выпуска: 1999
Лейбл: EUROARTS
Страна-производитель: США
Жанр: Classical
Продолжительность: 01:34:28
Язык: English
Перевод: нет
Субтитры: English, French
Дирижер: Bernard Haitink
Исполнители: Christine Schäfer (soprano), Emanuel Ax (piano), Berlin Philharmonic Orchestra
Треклист:
Wolfgang Amadeus Mozart- Exsultate jubilate, K. 165- Mass No. 18 in C Minor, K. 427, “Great”: Credo: Et incarnatus est
Frederic Chopin- Piano Concerto No. 2 in F Minor, Op. 21
Robert Schumann- Symphony No. 1 in B-Flat Major, Op. 38, “Spring”
Описание: The founding of the Berliner Philharmoniker on the first of May in 1882, is annually celebrated with a concert in a European city of cultural significance. For this newly released EUROPAKONZERT Blu-ray Disc all recordings were lovingly restored and converted to High Definition video. The Berliner Philharmoniker are joined for Mozart’s Motet and Mass on this recording by Christine Schäfer, whose unique timbre and performing style has more than once been likened to those of other vocal greats such as Irmgard Seefried and Elisabeth Schwarzkopf. This round of exceptional musicians is completed by Emanuel Ax, winner the Arthur Rubinstein International Piano Master Competition, as the soloist for the works of Chopin and Schumann.
Recorded live from St. Mary Church, Krakow, 1999.
Качество видео: Blu-ray
Формат/Контейнер: BDMV
Видео кодек: MPEG-4 AVC Video
Аудио кодек: DTS-HD
Видео поток: MPEG-4 AVC Video 19922 kbps 1080i / 29,970 fps / 16:9 / High Profile 4.1
Аудио поток: DTS-HD Master Audio Undetermined 4227 kbps 5.1 / 48 kHz / 4227 kbps / 24-bit (DTS Core: 5.1 / 48 kHz / 1509 kbps / 24-bit)
Аудио поток: LPCM Audio Undetermined 2304 kbps 2.0 / 48 kHz / 2304 kbps / 24-bit
Бонусы:
Interview with Krzysztof Penderecki
Footage from a performance of the Studium Musicae Cracoviense
Релиз: by BLUE_LIFE

BDInfo Report

DISC INFO:
Disc Title: EuropaKonzert 1999.St. Mary Church Krakow.Berliner Philharmoniker, Bernard Haitink.2014.BD1080i
Disc Size: 23 276 468 079 bytes
Protection: AACS
BD-Java: No
BDInfo: 0.5.8
PLAYLIST REPORT:
Name: 00000.MPLS
Length: 1:34:28.229 (h:m:s.ms)
Size: 19 814 381 568 bytes
Total Bitrate: 27,97 Mbps
VIDEO:
Codec Bitrate Description
----- ------- -----------
MPEG-4 AVC Video 19922 kbps 1080i / 29,970 fps / 16:9 / High Profile 4.1
AUDIO:
Codec Language Bitrate Description
----- -------- ------- -----------
LPCM Audio Undetermined 2304 kbps 2.0 / 48 kHz / 2304 kbps / 24-bit
DTS-HD Master Audio Undetermined 4227 kbps 5.1 / 48 kHz / 4227 kbps / 24-bit (DTS Core: 5.1 / 48 kHz / 1509 kbps / 24-bit)
SUBTITLES:
Codec Language Bitrate Description
----- -------- ------- -----------
Presentation Graphics Latin 0,608 kbps
Presentation Graphics English 0,674 kbps
Presentation Graphics German 0,761 kbps
Presentation Graphics French 0,686 kbps
FILES:
Name Time In Length Size Total Bitrate
---- ------- ------ ---- -------------
00000.M2TS 0:00:00.000 1:34:05.139 19 811 543 040 28 076
00005.M2TS 1:34:05.139 0:00:14.047 1 112 064 633
00010.M2TS 1:34:19.186 0:00:08.041 1 695 744 1 687
00006.M2TS 1:34:27.228 0:00:01.000 30 720 246

Скриншоты




Показать сообщения:    

Текущее время: 03-Дек 14:38

Часовой пояс: UTC + 3


Вы не можете начинать темы
Вы не можете отвечать на сообщения
Вы не можете редактировать свои сообщения
Вы не можете удалять свои сообщения
Вы не можете голосовать в опросах
Вы не можете прикреплять файлы к сообщениям
Вы не можете скачивать файлы