Europakonzert from Paris (Maurice Ravel, Wolfgang Amadeus Mozart, Ludwig van Beethoven - Berlin Philharmonic Orchestra, Daniel Barenboim) [1997, Classical, Blu-ray]


 

[Цитировать]

Europakonzert from Paris
Год выпуска: 1997
Лейбл: EUROARTS
Страна-производитель: США
Жанр: Classical
Продолжительность: 1:37:14
Язык: English
Перевод: нет
Субтитры: English, French
Исполнители: Daniel Barenboim (piano), Berlin Philharmonic Orchestra
Треклист:
Maurice Ravel- Le tombeau de Couperin (version for orchestra)
Wolfgang Amadeus Mozart- Piano Concerto No. 13 in C Major, K. 415
Ludwig van Beethoven- Symphony No. 3 in E-Flat Major, Op. 55, “Eroica”
Описание: The founding of the Berliner Philharmoniker on the first of May in 1882, is annually celebrated with a concert in a European city of cultural significance. For this newly released EUROPAKONZERT Blu-ray Disc all recordings were lovingly restored and converted to High Definition video. On this recording, Daniel Barenboim does not only play the role of the conductor, he also is the soloist for Mozart’s Piano Concerto no. 13 in C major K. 415, one of Mozart’s less often performed Viennese piano concertos. This concert is omplemented with Ravel’s “Le tombeau de Couperin”, which was composed in honor of the French composer after whom it is named and with Beethoven’s third symphony, the so called “Eroica”.
Recorded live from the Opéra du Château de Versailles, 1997.
Качество видео: Blu-ray
Формат/Контейнер: BDMV
Видео кодек: MPEG-4 AVC Video
Аудио кодек: DTS-HD
Видео поток: MPEG-4 AVC Video 18928 kbps 1080i / 29,970 fps / 16:9 / High Profile 4.1
Аудио поток: DTS-HD Master Audio Undetermined 4284 kbps 5.1 / 48 kHz / 4284 kbps / 24-bit (DTS Core: 5.1 / 48 kHz / 1509 kbps / 24-bit)
Аудио поток: LPCM Audio Undetermined 2304 kbps 2.0 / 48 kHz / 2304 kbps / 24-bit
Бонусы:
Documentary about the musical life in Paris
Релиз: by BLUE_LIFE

BDInfo Report

DISC INFO:
Disc Title: EuropaKonzert 1997.Opéra du château de Versailles.Berliner Philharmoniker, Daniel Barenboim.2014.BD1080i
Disc Size: 23 010 749 982 bytes
Protection: AACS
BD-Java: No
BDInfo: 0.5.8
PLAYLIST REPORT:
Name: 00000.MPLS
Length: 1:37:14.862 (h:m:s.ms)
Size: 19 682 168 832 bytes
Total Bitrate: 26,99 Mbps
VIDEO:
Codec Bitrate Description
----- ------- -----------
MPEG-4 AVC Video 18928 kbps 1080i / 29,970 fps / 16:9 / High Profile 4.1
AUDIO:
Codec Language Bitrate Description
----- -------- ------- -----------
LPCM Audio Undetermined 2304 kbps 2.0 / 48 kHz / 2304 kbps / 24-bit
DTS-HD Master Audio Undetermined 4284 kbps 5.1 / 48 kHz / 4284 kbps / 24-bit (DTS Core: 5.1 / 48 kHz / 1509 kbps / 24-bit)
FILES:
Name Time In Length Size Total Bitrate
---- ------- ------ ---- -------------
00000.M2TS 0:00:00.000 1:36:51.772 19 679 330 304 27 089
00005.M2TS 1:36:51.772 0:00:14.047 1 112 064 633
00010.M2TS 1:37:05.819 0:00:08.041 1 695 744 1 687
00006.M2TS 1:37:13.861 0:00:01.000 30 720 246

Скриншоты




Показать сообщения:    

Текущее время: 07-Дек 11:36

Часовой пояс: UTC + 3


Вы не можете начинать темы
Вы не можете отвечать на сообщения
Вы не можете редактировать свои сообщения
Вы не можете удалять свои сообщения
Вы не можете голосовать в опросах
Вы не можете прикреплять файлы к сообщениям
Вы не можете скачивать файлы