Giovanni Battista Pergolesi - Stabat Mater (Anna Netrebko, Marianna Pizzolato / Bertrand de Billy) / Джованни Батиста Перголези - Стабат Матер (Анна Нетребко, Марианна Пиццолато / Бертран де Бийи) [2015, Classical Vocal, HDTV=>DVD5]


 

[Цитировать]

Giovanni Battista Pergolesi - Stabat Mater
Год выпуска: 2015
Жанр: Classical Vocal
Продолжительность: 01:01:13
Язык: Italiano
Исполнители: Anna Netrebko, soprano
Marianna Pizzolato, Mezzo-soprano
Sächsische Staatskapelle Dresden
Bertrand de Billy, Conductor
Треклист:
01. Intro
Franz Joseph Haydn - The Seven Last Word of Our Saviour on the Cross (1786):
02. L'Introduzione
03. Sonata I
04. Johann Sebastian Bach - St Matthew Passion: "Erbarme Dich, Gott" (1727)
(Marianna Pizzolato, mezzo-soprano)
Giovanni Battista Pergolesi - Stabat Mater (1736):
05. Stabat mater dolorosa
06. Cuius animam gementem
07. O quam tristis et afflicta
08. Quae moerebat et dolebat
09. Quis est homo, qui non fleret
10. Vidit suum dulcem natum
11. Eia, Mater, fons amoris
12. Fac, ut ardeat cor meum
13. Sancta Mater, istud agas
14. Fac, ut portem Christi mortem
15. Inflammatus et accensus
16. Quando corpus morietur - Amen
(Anna Netrebko, soprano
Marianna Pizzolato, mezzo-soprano)
17. Credit
Описание: »Passionsmusik aus der Dresdner Frauenkirche«
Frauenkirche Dresden, Saturday 27. November 2010 20:30
Filmed at the beautiful Dresden Frauenkirche, this concert features Anna Netrebko, Marianna Pizzolato and the Sächsische Staatskapelle Dresden conducted by Bertrand de Billy. Stabat Mater was written in 1736 by Giovanni Pergolesi (1710-1736), and quickly became the became the most frequently printed musical work in the 18th century. The program also includes The Seven Last Word of Our Saviour on the Cross by Joseph Haydn and St Matthew Passion by J.S. Bach.
Доп. информация:Иcходник HDTV
Меню статическое.
Полученный результат проверен на работоспособность на софтовом Media Player Classic Home Cinema, записан на болванку с помощью ImgBurn и вновь проверен уже на бытовом плеере.

Программы, использованные при создании этого релиза

Демуксинг
eac3to
HdBrStreamExtractor
Обработка видео
DGDecodeNV
AviSynth
Rhozet Carbon Coder
Создание меню, Редактирование, Авторинг и проверка
Muxman
MPEG Video Wizard DVD
DvdReMakePro

Скрипт

LoadPlugin("C:\folders\dgdecnv2041\DGDecodeNV.dll")
DGSource("G:\Pergolesi\1_1_video.dgi")
LoadPlugin("C:\Program Files (x86)\AviSynth 2.5\plugins\TDeint.dll")
TDeint(mode=1)
Lanczos4Resize(720,576)
AssumeTFF()
SeparateFields()
SelectEvery(4,0,3)
Weave()
LoadPlugin("C:\Program Files (x86)\AviSynth 2.5\plugins\AutoYUY2.dll")
AutoYUY2()
LoadPlugin("C:\Program Files (x86)\AviSynth 2.5\plugins\ColorMatrix.dll")
ColorMatrix(mode="Rec.709->Rec.601", inputFR=false, clamp=0)
сэмпл
Качество видео: HDTV=>DVD5
Формат/Контейнер: DVDVideo
Видео кодек: MPEG2
Аудио кодек: AC3
Видео поток: PAL 16:9 (720x576) VBR Auto Letterboxed ~ 8500(9000) Kbps 25.000 fps
Аудио поток: Italiano (Dolby AC3, 6 ch) 384 Kbps

DVDInfo+MI

Title: Giovanni Battista Pergolesi - Stabat MaterSize: 3.86 Gb ( 4 049 782,00 KBytes ) - DVD-5Enabled regions: 1, 2, 3, 4, 5, 6, 7, 8
VTS_01 : Play Length: 01:01:13 Video: PAL 16:9 (720x576) VBR, Auto Letterboxed Audio: Italiano, AC3, 3/2 (L,C,R,SL,SR)+LFE ch, 384 kbps, Delay 0 mSec
* Menus Information *
VIDEO_TS MenuVideo: NTSC 4:3 (720x480) VBR Auto Pan&Scan, Auto LetterboxedLanguage Unit :
VTS_01 MenuVideo: PAL 16:9 (720x576) VBR Auto LetterboxedLanguage Unit : Root Menu-GeneralComplete name : D:\Downloads\Giovanni Battista Pergolesi - Stabat Mater\VIDEO_TS\VIDEO_TS.BUPFormat : DVD VideoFormat profile : MenuFile size : 6.00 KiBOverall bit rate mode : Variable
VideoID : 224 (0xE0)Format : MPEG VideoFormat version : Version 1Bit rate mode : VariableWidth : 720 pixelsHeight : 480 pixelsDisplay aspect ratio : 4:3Frame rate : 29.970 fpsStandard : NTSCCompression mode : Lossy
GeneralComplete name : D:\Downloads\Giovanni Battista Pergolesi - Stabat Mater\VIDEO_TS\VIDEO_TS.IFOFormat : DVD VideoFormat profile : MenuFile size : 6.00 KiBOverall bit rate mode : Variable
VideoID : 224 (0xE0)Format : MPEG VideoFormat version : Version 1Bit rate mode : VariableWidth : 720 pixelsHeight : 480 pixelsDisplay aspect ratio : 4:3Frame rate : 29.970 fpsStandard : NTSCCompression mode : Lossy
GeneralComplete name : D:\Downloads\Giovanni Battista Pergolesi - Stabat Mater\VIDEO_TS\VTS_01_0.BUPFormat : DVD VideoFormat profile : ProgramFile size : 48.0 KiBDuration : 1h 1mnOverall bit rate mode : VariableOverall bit rate : 107 bps
VideoID : 224 (0xE0)Format : MPEG VideoFormat version : Version 2Duration : 1h 1mnBit rate mode : VariableWidth : 720 pixelsHeight : 576 pixelsDisplay aspect ratio : 16:9Frame rate : 25.000 fpsStandard : PALCompression mode : Lossy
AudioID : 128 (0x80)Format : AC-3Format/Info : Audio Coding 3Duration : 1h 1mnChannel(s) : 6 channelsSampling rate : 48.0 KHzCompression mode : LossyLanguage : Italian
MenuDuration : 1h 1mn00:00:00.000 : Chapter 100:00:39.600 : Chapter 200:06:36.400 : Chapter 300:13:01.400 : Chapter 400:20:51.200 : Chapter 500:25:24.640 : Chapter 600:27:35.440 : Chapter 700:29:42.040 : Chapter 800:32:03.720 : Chapter 900:34:58.320 : Chapter 1000:38:54.320 : Chapter 1100:40:55.240 : Chapter 1200:42:57.160 : Chapter 1300:48:27.760 : Chapter 1400:52:16.000 : Chapter 1500:54:25.240 : Chapter 1600:59:27.800 : Chapter 17List (Audio) : 0
GeneralComplete name : D:\Downloads\Giovanni Battista Pergolesi - Stabat Mater\VIDEO_TS\VTS_01_0.IFOFormat : DVD VideoFormat profile : ProgramFile size : 48.0 KiBDuration : 1h 1mnOverall bit rate mode : VariableOverall bit rate : 107 bps
VideoID : 224 (0xE0)Format : MPEG VideoFormat version : Version 2Duration : 1h 1mnBit rate mode : VariableWidth : 720 pixelsHeight : 576 pixelsDisplay aspect ratio : 16:9Frame rate : 25.000 fpsStandard : PALCompression mode : Lossy
AudioID : 128 (0x80)Format : AC-3Format/Info : Audio Coding 3Duration : 1h 1mnChannel(s) : 6 channelsSampling rate : 48.0 KHzCompression mode : LossyLanguage : Italian
MenuDuration : 1h 1mn00:00:00.000 : Chapter 100:00:39.600 : Chapter 200:06:36.400 : Chapter 300:13:01.400 : Chapter 400:20:51.200 : Chapter 500:25:24.640 : Chapter 600:27:35.440 : Chapter 700:29:42.040 : Chapter 800:32:03.720 : Chapter 900:34:58.320 : Chapter 1000:38:54.320 : Chapter 1100:40:55.240 : Chapter 1200:42:57.160 : Chapter 1300:48:27.760 : Chapter 1400:52:16.000 : Chapter 1500:54:25.240 : Chapter 1600:59:27.800 : Chapter 17List (Audio) : 0
GeneralComplete name : D:\Downloads\Giovanni Battista Pergolesi - Stabat Mater\VIDEO_TS\VTS_01_0.VOBFormat : MPEG-PSFile size : 390 KiBDuration : 400msOverall bit rate mode : VariableOverall bit rate : 7 987 KbpsWriting library : (c) 1998-2009 Womble Multimedia, Inc. / MPEG Video Wizard (03/2009) / Jun 24 2009
VideoID : 224 (0xE0)Format : MPEG VideoFormat version : Version 2Format profile : Main@MainFormat settings, BVOP : YesFormat settings, Matrix : DefaultDuration : 400msBit rate mode : VariableMaximum bit rate : 9 000 KbpsWidth : 720 pixelsHeight : 576 pixelsDisplay aspect ratio : 16:9Frame rate : 25.000 fpsStandard : PALColor space : YUVChroma subsampling : 4:2:0Bit depth : 8 bitsScan type : ProgressiveCompression mode : LossyWriting library : (c) 1998-2009 Womble Multimedia, Inc. / MPEG Video Wizard (03/2009) / Jun 24 2009
Text #1ID : 189 (0xBD)-32 (0x20)Format : RLEFormat/Info : Run-length encodingMuxing mode : DVD-Video
Text #2ID : 189 (0xBD)-33 (0x21)Format : RLEFormat/Info : Run-length encodingMuxing mode : DVD-Video
Menu
GeneralComplete name : D:\Downloads\Giovanni Battista Pergolesi - Stabat Mater\VIDEO_TS\VTS_01_1.VOBFormat : MPEG-PSFile size : 1 024 MiBDuration : 15mn 45sOverall bit rate mode : VariableOverall bit rate : 9 090 KbpsWriting library : (c) 1998-2009 Womble Multimedia, Inc. / MPEG Video Wizard (03/2009) / Jun 24 2009
VideoID : 224 (0xE0)Format : MPEG VideoFormat version : Version 2Format profile : Main@MainFormat settings, BVOP : YesFormat settings, Matrix : CustomFormat settings, GOP : VariableDuration : 15mn 45sBit rate mode : VariableBit rate : 8 525 KbpsMaximum bit rate : 9 000 KbpsWidth : 720 pixelsHeight : 576 pixelsDisplay aspect ratio : 16:9Frame rate : 25.000 fpsStandard : PALColor space : YUVChroma subsampling : 4:2:0Bit depth : 8 bitsScan type : InterlacedScan order : Top Field FirstCompression mode : LossyBits/(Pixel*Frame) : 0.822Time code of first frame : 00:00:00:00Time code source : Group of pictures headerStream size : 960 MiB (94%)Writing library : (c) 1998-2009 Womble Multimedia, Inc. / MPEG Video Wizard (03/2009) / Jun 24 2009
AudioID : 189 (0xBD)-128 (0x80)Format : AC-3Format/Info : Audio Coding 3Mode extension : CM (complete main)Format settings, Endianness : BigMuxing mode : DVD-VideoDuration : 15mn 44sBit rate mode : ConstantBit rate : 384 KbpsChannel(s) : 6 channelsChannel positions : Front: L C R, Side: L R, LFESampling rate : 48.0 KHzBit depth : 16 bitsCompression mode : LossyStream size : 43.2 MiB (4%)
Menu
GeneralComplete name : D:\Downloads\Giovanni Battista Pergolesi - Stabat Mater\VIDEO_TS\VTS_01_2.VOBFormat : MPEG-PSFile size : 1 024 MiBDuration : 15mn 40sOverall bit rate mode : VariableOverall bit rate : 9 137 Kbps
VideoID : 224 (0xE0)Format : MPEG VideoFormat version : Version 2Format profile : Main@MainFormat settings, BVOP : YesFormat settings, Matrix : CustomFormat settings, GOP : M=3, N=15Duration : 15mn 39sBit rate mode : VariableBit rate : 8 571 KbpsMaximum bit rate : 9 000 KbpsWidth : 720 pixelsHeight : 576 pixelsDisplay aspect ratio : 16:9Frame rate : 25.000 fpsStandard : PALColor space : YUVChroma subsampling : 4:2:0Bit depth : 8 bitsScan type : InterlacedScan order : Top Field FirstCompression mode : LossyBits/(Pixel*Frame) : 0.827Time code of first frame : 00:15:45:06Time code source : Group of pictures headerStream size : 960 MiB (94%)
AudioID : 189 (0xBD)-128 (0x80)Format : AC-3Format/Info : Audio Coding 3Mode extension : CM (complete main)Format settings, Endianness : BigMuxing mode : DVD-VideoDuration : 15mn 40sBit rate mode : ConstantBit rate : 384 KbpsChannel(s) : 6 channelsChannel positions : Front: L C R, Side: L R, LFESampling rate : 48.0 KHzBit depth : 16 bitsCompression mode : LossyDelay relative to video : -112msStream size : 43.0 MiB (4%)
Menu
GeneralComplete name : D:\Downloads\Giovanni Battista Pergolesi - Stabat Mater\VIDEO_TS\VTS_01_3.VOBFormat : MPEG-PSFile size : 1 024 MiBDuration : 16mn 9sOverall bit rate mode : VariableOverall bit rate : 8 858 Kbps
VideoID : 224 (0xE0)Format : MPEG VideoFormat version : Version 2Format profile : Main@MainFormat settings, BVOP : YesFormat settings, Matrix : CustomFormat settings, GOP : M=3, N=15Duration : 16mn 9sBit rate mode : VariableBit rate : 8 298 KbpsMaximum bit rate : 9 000 KbpsWidth : 720 pixelsHeight : 576 pixelsDisplay aspect ratio : 16:9Frame rate : 25.000 fpsStandard : PALColor space : YUVChroma subsampling : 4:2:0Bit depth : 8 bitsScan type : InterlacedScan order : Top Field FirstCompression mode : LossyBits/(Pixel*Frame) : 0.800Time code of first frame : 00:31:25:09Time code source : Group of pictures headerStream size : 959 MiB (94%)
AudioID : 189 (0xBD)-128 (0x80)Format : AC-3Format/Info : Audio Coding 3Mode extension : CM (complete main)Format settings, Endianness : BigMuxing mode : DVD-VideoDuration : 16mn 9sBit rate mode : ConstantBit rate : 384 KbpsChannel(s) : 6 channelsChannel positions : Front: L C R, Side: L R, LFESampling rate : 48.0 KHzBit depth : 16 bitsCompression mode : LossyDelay relative to video : 16msStream size : 44.4 MiB (4%)
Menu
GeneralComplete name : D:\Downloads\Giovanni Battista Pergolesi - Stabat Mater\VIDEO_TS\VTS_01_4.VOBFormat : MPEG-PSFile size : 882 MiBDuration : 13mn 39sOverall bit rate mode : VariableOverall bit rate : 9 035 Kbps
VideoID : 224 (0xE0)Format : MPEG VideoFormat version : Version 2Format profile : Main@MainFormat settings, BVOP : YesFormat settings, Matrix : CustomFormat settings, GOP : M=3, N=15Duration : 13mn 38sBit rate mode : VariableBit rate : 8 471 KbpsMaximum bit rate : 9 000 KbpsWidth : 720 pixelsHeight : 576 pixelsDisplay aspect ratio : 16:9Frame rate : 25.000 fpsStandard : PALColor space : YUVChroma subsampling : 4:2:0Bit depth : 8 bitsScan type : InterlacedScan order : Top Field FirstCompression mode : LossyBits/(Pixel*Frame) : 0.817Time code of first frame : 00:47:35:00Time code source : Group of pictures headerStream size : 827 MiB (94%)
AudioID : 189 (0xBD)-128 (0x80)Format : AC-3Format/Info : Audio Coding 3Mode extension : CM (complete main)Format settings, Endianness : BigMuxing mode : DVD-VideoDuration : 13mn 39sBit rate mode : ConstantBit rate : 384 KbpsChannel(s) : 6 channelsChannel positions : Front: L C R, Side: L R, LFESampling rate : 48.0 KHzBit depth : 16 bitsCompression mode : LossyDelay relative to video : -16msStream size : 37.5 MiB (4%)

Скриншоты меню




Показать сообщения:    

Текущее время: 19-Янв 22:15

Часовой пояс: UTC + 3


Вы не можете начинать темы
Вы не можете отвечать на сообщения
Вы не можете редактировать свои сообщения
Вы не можете удалять свои сообщения
Вы не можете голосовать в опросах
Вы не можете прикреплять файлы к сообщениям
Вы не можете скачивать файлы