Born in Riga (Wagner, Medins, Pelecis, Jongen, Cilea, Maskats, Чайковский, Verdi, Puccini, Orff) Riga Festival Orchestra, Andris Poga, Baiba Skride, Mischa Maisky, Inese Galante, Aleksandrs Antonenko [2014, Orchestral / Open-Air-Konzert, HDTV 720p]


 

[Цитировать]

Born in Riga
Riga Festival Orchestra • Andris Poga

-
Год выпуска: 2014
Лейбл: ZDF / Latvijas Televizija
Жанр: Classical / Orchestral / Open-Air-Konzert
Продолжительность: 00:43:38
Режиссер: Peter Maniura (BBC)
Исполнители:
Andris Poga - dirigent
Riga Festival Orchestra
The State Choir Latvija
The Latvian Radio Choir
Latvian National Ballet
Kremerata Baltica
Laima Jansone - kokle
Andrejs Puškarevs - vibraphon
Daniils Bulajevs - violin
Mischa Maisky - violoncello
Baiba Skride - violin
Iveta Apkalna - orgel
Ksenija Sidorova - akkordeon
Inese Galante - sopran
Aleksandrs Antonenko - tenor
Треклист:
Richard Wagner - "Lohengrin" Vorspiel 3. Akt
Jāzeps Medinš - Latvian Capriccio (arr.: Vilnis Šmīdbergs)
- Aiz ezera augsti kalni (lettisches Voikslied, arr.: Raimonds Pauls & Ēriks Ešenvalds)
Georgs Pelēcis - Plaukstošs jasmīns
Joseph Jongen - Konzertsinfonie für Orgel und Orchester op. 81 (Finale)
Francesco Cilea - Arie der Anriana aus "Andriana Lecouvreut"
Arturs Maskats - Tango
Pyotr Tchaikovsky - Rokoko-Variationen
Giuseppe Verdi - "Zigeunerchor" aus "Il Trovatore"
Giacomo Puccini - Arie des Calaf aus "Turandot"
Carl Orff - Carmina Burana (Finale)
Доп. информация:
Klassik Open Air aus Riga arte.tv
Concert "Born in Riga" riga2014.org
... в представленном здесь материале есть небольшие рассказы о Риге таких известных людей:
Mariss Jansons, Gidon Kremer, Mikhail Baryshnikov, Elīna Garanča (нем., франц. язык) ...

Качество видео: HDTV 720p
Контейнер: TS
Видео кодек: H.264
Аудио кодек: AC3
Видео поток: Overall bit rate: 11.3 Mbps, 1280*720 (16:9), at 50.000 fps, AVC (High@L4.0) (CABAC / 4 Ref Frames)
Аудио поток: German, 192 Kbps, 48.0 KHz, 2 channels, MPEG Audio (Version 1) (Layer 2)
Аудио 2: French, 192 Kbps, 48.0 KHz, 2 channels, MPEG Audio (Version 1) (Layer 2)
Аудио 3: Multiple languages, 448 Kbps, 48.0 KHz, 16 bits, 2 channels, AC-3
Аудио 4: 192 Kbps, 48.0 KHz, 2 channels, MPEG Audio (Version 1) (Layer 2)
Источник: Digital Satellite > SkyStar HD2 (TechniSat) > raw data to HDD > Cypheros TS-Doctor > Smart Cutter (cut) > ts

MediaInfo

GeneralID : 8900 (0x22C4)Complete name : C:\arte HD_Born in Riga (Andris Poga) 2014.tsFormat : MPEG-TSFile size : 3.43 GiBDuration : 43mn 38sOverall bit rate mode : VariableOverall bit rate : 11.3 Mbps
VideoID : 5111 (0x13F7)Menu ID : 10302 (0x283E)Format : AVCFormat/Info : Advanced Video CodecFormat profile : High@L4.0Format settings, CABAC : YesFormat settings, ReFrames : 4 framesFormat settings, GOP : M=6, N=32Codec ID : 27Duration : 43mn 38sBit rate : 9 666 KbpsWidth : 1 280 pixelsHeight : 720 pixelsDisplay aspect ratio : 16:9Frame rate : 50.000 fpsColor space : YUVChroma subsampling : 4:2:0Bit depth : 8 bitsScan type : ProgressiveBits/(Pixel*Frame) : 0.210Stream size : 2.95 GiB (86%)
Audio #1ID : 5112 (0x13F8)Menu ID : 10302 (0x283E)Format : MPEG AudioFormat version : Version 1Format profile : Layer 2Codec ID : 3Duration : 43mn 38sBit rate mode : ConstantBit rate : 192 KbpsChannel(s) : 2 channelsSampling rate : 48.0 KHzCompression mode : LossyDelay relative to video : -22msStream size : 59.9 MiB (2%)Language : German
Audio #2ID : 5113 (0x13F9)Menu ID : 10302 (0x283E)Format : MPEG AudioFormat version : Version 1Format profile : Layer 2Codec ID : 3Duration : 43mn 38sBit rate mode : ConstantBit rate : 192 KbpsChannel(s) : 2 channelsSampling rate : 48.0 KHzCompression mode : LossyDelay relative to video : -22msStream size : 59.9 MiB (2%)Language : French
Audio #3ID : 5116 (0x13FC)Menu ID : 10302 (0x283E)Format : AC-3Format/Info : Audio Coding 3Mode extension : CM (complete main)Format settings, Endianness : BigCodec ID : 6Duration : 43mn 38sBit rate mode : ConstantBit rate : 448 KbpsChannel(s) : 2 channelsChannel positions : Front: L RSampling rate : 48.0 KHzBit depth : 16 bitsCompression mode : LossyDelay relative to video : -25msStream size : 140 MiB (4%)Language : Multiple languages
Audio #4ID : 5117 (0x13FD)Menu ID : 10302 (0x283E)Format : MPEG AudioFormat version : Version 1Format profile : Layer 2Codec ID : 3Duration : 43mn 38sBit rate mode : ConstantBit rate : 192 KbpsChannel(s) : 2 channelsSampling rate : 48.0 KHzCompression mode : LossyDelay relative to video : -13msStream size : 59.9 MiB (2%)
... info ...">

Скриншоты ... info ...


Als einer der Höhepunkte des Kulturhauptstadtjahres 2014 stand in der lettischen Hauptstadt ein spektakuläres Open-Air-Konzert auf dem Programm. Unter dem Titel "Born in Riga" spielten einige der prominentesten Musiker des Baltenstaates wie der Cellist Mischa Maisky, die Geigerin Baiba Skride, die Organistin Iveta Apkalna und die Akkordeon-Virtuosin Ksenija Sidorova.
Es ist immer wieder erstaunlich, wie viele Klassik-Stars ihre Heimat in den baltischen Staaten haben. Mariss Jansons, Gidon Kremer, Elina Garanca oder auch die Ballett-Legende Mikhail Baryshnikov: Sie alle sind in Riga, der Hauptstadt Lettlands, geboren. Da lag das Motto nur nahe, unter dem ein spektakuläres Open-Air-Konzert als einer der Höhepunkte des Kulturhauptstadtjahres 2014 in der lettischen Hauptstadt stand: „Born in Riga“ brachte einige der prominentesten und beliebtesten Musiker des Baltenstaats auf die Bühne, unter ihnen Weltstars wie der Cellist Mischa Maisky, die Geigerin Baiba Skride, die Organistin Iveta Apkalna und die Akkordeon-Virtuosin Ksenija Sidorova.
Riga, die alte Hansestadt, blickt als ein Kreuzungspunkt der Kulturen im Spannungsfeld zwischen Deutschland, Schweden, Polen und Russland auf eine bewegte Geschichte zurück. Hier ist die Musik zu Hause: Schon im 17. Jahrhundert galt Riga als Musikzentrum von europäischem Rang, zwei Jahrhunderte später war von 1837 bis 1839 Richard Wagner Kapellmeister am international renommierten Opernhaus der Stadt.
Das musikalische Programm von „Born in Riga“ spiegelt die reiche Musiktradition des Baltenstaates wider - von Richard Wagner bis zur lettischen Volksmusik, von wuchtig-emotionalen Chorkompositionen bis zum mitreißenden Tango. Schauplatz des Open-Air-Events ist der Park vor dem Opernhaus. Orchester, Chöre, Solisten und Ballett spielen und tanzen vor der klassizistischen Kulisse auf mehreren Bühnen mit Video-Wänden und aufwendiger Lichtshow.
~ arte.tv



Показать сообщения:    

Текущее время: 07-Дек 19:29

Часовой пояс: UTC + 3


Вы не можете начинать темы
Вы не можете отвечать на сообщения
Вы не можете редактировать свои сообщения
Вы не можете удалять свои сообщения
Вы не можете голосовать в опросах
Вы не можете прикреплять файлы к сообщениям
Вы не можете скачивать файлы