Дмитрий Шостакович (Shostakovich) - Piano Concerto No. 1; Joseph Haydn - Piano Concerto (Die Deutsche Kammerphilharmonie Bremen, Florian Donderer, Игорь Левит (Igor Levit), Jeroen Berwaerts) [2014, Classical / Orchestral / Piano, HDTV 720p]


 

[Цитировать]

Dmitri Schostakowitsch - Konzert für Klavier Nr. 1
Joseph Haydn - Klavierkonzert D-Dur

Die Deutsche Kammerphilharmonie Bremen • Florian Donderer • Igor Levit

-
Год выпуска: 2014
Лейбл: radiobremen, arte
Жанр: Classical / Orchestral / Piano
Продолжительность: 00:44:32
Режиссер: Henning van Lil
Исполнители:
Die Deutsche Kammerphilharmonie Bremen
Florian Donderer - leitung
Игорь Левит (Igor Levit) - klavier
Jeroen Berwaerts - trompete
Треклист:
Дмитрий Шостакович
- Konzert für Klavier, Trompete und Streichorchester Nr. 1
Joseph Haydn
- Klavierkonzert D-Dur op 21. (Hob XVIII)
Доп. информация:
Aus dem Konzerthaus Die Glocke, Bremen
Igor Levit spielt Haydn und Schostakowitsch arte.tv
Die Deutsche Kammerphilharmonie Bremen Official Site
Florian Donderer kammerphilharmonie.com
Florian Donderer Official Site
Igor Levit Official Site
Igor Levit from Wikipedia, the free encyclopedia
Качество видео: HDTV 720p
Контейнер: TS
Видео кодек: H.264
Аудио кодек: AC3
Видео поток: Overall bit rate: 8 960 Kbps, 1280*720 (16:9), at 50.000 fps, AVC (High@L3.2) (CABAC / 4 Ref Frames)
Аудио поток: German, 192 Kbps, 48.0 KHz, 2 channels, MPEG Audio (Version 1) (Layer 2)
Аудио 2: French, 192 Kbps, 48.0 KHz, 2 channels, MPEG Audio (Version 1) (Layer 2)
Аудио 3: Multiple languages, 448 Kbps, 48.0 KHz, 16 bits, 6 channels, AC-3
Аудио 4: 192 Kbps, 48.0 KHz, 2 channels, MPEG Audio (Version 1) (Layer 2)
Источник: Digital Satellite > SkyStar HD2 (TechniSat) > raw data to HDD > Cypheros TS-Doctor > Smart Cutter 1.92 (cut) > ts

MediaInfo

GeneralID : 8900 (0x22C4)Complete name : C:\rutracker.org_HD\arte HD_Schostakowitsch, Haydn (Igor Levit) 2014.tsFormat : MPEG-TSFile size : 2.79 GiBDuration : 44mn 32sOverall bit rate mode : VariableOverall bit rate : 8 960 Kbps
VideoID : 5111 (0x13F7)Menu ID : 10302 (0x283E)Format : AVCFormat/Info : Advanced Video CodecFormat profile : High@L4.0Format settings, CABAC : YesFormat settings, ReFrames : 4 framesCodec ID : 27Duration : 44mn 32sBit rate : 7 483 KbpsWidth : 1 280 pixelsHeight : 720 pixelsDisplay aspect ratio : 16:9Frame rate : 50.000 fpsColor space : YUVChroma subsampling : 4:2:0Bit depth : 8 bitsScan type : ProgressiveBits/(Pixel*Frame) : 0.162Stream size : 2.33 GiB (84%)
Audio #1ID : 5112 (0x13F8)Menu ID : 10302 (0x283E)Format : MPEG AudioFormat version : Version 1Format profile : Layer 2Codec ID : 3Duration : 44mn 32sBit rate mode : ConstantBit rate : 192 KbpsChannel(s) : 2 channelsSampling rate : 48.0 KHzCompression mode : LossyDelay relative to video : -3msStream size : 61.2 MiB (2%)Language : German
Audio #2ID : 5113 (0x13F9)Menu ID : 10302 (0x283E)Format : MPEG AudioFormat version : Version 1Format profile : Layer 2Codec ID : 3Duration : 44mn 32sBit rate mode : ConstantBit rate : 192 KbpsChannel(s) : 2 channelsSampling rate : 48.0 KHzCompression mode : LossyDelay relative to video : -3msStream size : 61.2 MiB (2%)Language : French
Audio #3ID : 5116 (0x13FC)Menu ID : 10302 (0x283E)Format : AC-3Format/Info : Audio Coding 3Mode extension : CM (complete main)Format settings, Endianness : BigCodec ID : 6Duration : 44mn 33sBit rate mode : ConstantBit rate : 448 KbpsChannel(s) : 6 channelsChannel positions : Front: L C R, Side: L R, LFESampling rate : 48.0 KHzBit depth : 16 bitsCompression mode : LossyDelay relative to video : -1s 381msStream size : 143 MiB (5%)Language : Multiple languages
Audio #4ID : 5117 (0x13FD)Menu ID : 10302 (0x283E)Format : MPEG AudioFormat version : Version 1Format profile : Layer 2Codec ID : 3Duration : 44mn 32sBit rate mode : ConstantBit rate : 192 KbpsChannel(s) : 2 channelsSampling rate : 48.0 KHzCompression mode : LossyDelay relative to video : -17msStream size : 61.2 MiB (2%)
... info ...">

Скриншоты ... info ...


Die Presse feiert ihn als faszinierendsten jungen Pianisten der heutigen Klassikszene: der 1987 geborene Igor Levit. Er interpretiert das D-Dur Klavierkonzert op 21. (Hob XVIII) von Haydn sowie das erste Klavierkonzert von Schostakowitsch in c-Moll, ein Doppelkonzert für Klavier, Trompete und Streichorchester.
Joseph Haydn gehört zu den produktivsten Komponisten der Musikgeschichte. Sein Schaffen wird weltweit geliebt und geschätzt. Das D-Dur Klavierkonzert entstand im Jahr 1784. Es wurde stolz als „einziges gedrucktes Klavierkonzert Joseph Haydns“ angekündigt und stammt aus einer Tradition, die Geschmack über Virtuosität stellt.
Schostakowitsch ist neben Igor Strawinsky (1882-1971), Sergej Prokofjew (1891-1953), Sergej Rachmaninow (1873-1943) und Alexander Skrjabin (1872-1915) der bedeutendste Komponist Russlands im 20. Jahrhundert und war außerordentlich produktiv und vielseitig. Sein Leben spiegelt die Höhen und Tiefen des 20. Jahrhunderts in der Sowjetunion. Er schrieb Hymnen auf Josef Stalin und blieb gleichzeitig auf Distanz zum stalinistischen Regime. „Um die Geschichte unseres Landes zwischen 1930 und 1970 nachzuleben, reicht es aus, die Symphonien von Schostakowitsch zu hören“, schrieb die Wochenzeitung Moskowskije Nowosti.
Sein erstes Klavierkonzert, 1933 entstanden, gehört zu Schostakowitsch Frühwerk und ist im Grunde genommen ein Doppelkonzert für Klavier, Trompete und Streichorchester. Das Werk ist geprägt von einem etwas jugendlich schelmenhaften Humor, und kann als Herausforderung an die russische Solokonzertform verstanden werden.
Der Solist Igor Levit ist mit Sicherheit eine der faszinierendsten Künstlerpersönlichkeiten der jüngeren Generation. Keine geringere als Eleonore Büning bezeichnete ihn schon vor Jahren als einen der großen Pianisten des Jahrhunderts. Gerade eben gab er in New York ein umjubeltes Debüt. Seit seinem Debüt mit der Deutschen Kammerphilharmonie 2013 verbindet ihn und das Orchester eine enge musikalische Freundschaft, die mit diesem Projekt ohne Dirigent eine besondere Fortsetzung findet: Kammermusik in Orchesterbesetzung.
~ arte.tv



Показать сообщения:    

Текущее время: 06-Дек 22:57

Часовой пояс: UTC + 3


Вы не можете начинать темы
Вы не можете отвечать на сообщения
Вы не можете редактировать свои сообщения
Вы не можете удалять свои сообщения
Вы не можете голосовать в опросах
Вы не можете прикреплять файлы к сообщениям
Вы не можете скачивать файлы