Salzburg Festival 2013 (Toru Takemitsu - November Steps; Toshio Hosokawa - Klage; Hector Berlioz - Symphonie fantastique) NHK Symphony Orchestra, Charles Dutoit, Anna Prohaska [2013, Classical / Symphony / Vocal, HDTV 720p]


 

[Цитировать]

Salzburg Festival 2013
Tōru Takemitsu / Toshio Hosokawa / Hector Berlioz
NHK Symphony Orchestra, Tokyo • Charles Dutoit

-
Год выпуска: 2013
Лейбл: Unitel / NHK
Жанр: Classical / Symphony / Vocal
Продолжительность: 01:50:34
Режиссер: Yoko Ishida
Исполнители:
Anna Prohaska - soprano
Kakujo Nakamura - biwa
Kaoru Kakizakai - shakuhachi
NHK Symphony Orchestra, Tokyo
Charles Dutoit - conductor
Треклист:
Tōru Takemitsu - November Steps for Biwa, Shakuhachi and Orchestra (1967)
Toshio Hosokawa - Klage (Lamentation) for Soprano and Orchestra after poems by Georg Trakl
World Premiere, work commissioned by the Salzburg Festival
Hector Berlioz - Symphonie fantastique op. 14 - Episode de la vie d'un artiste en cinq parties
Доп. информация:
Salzburg Festival, Felsenreitschule, 2013
Das NHK Symphonieorchester spielt Berlioz 3sat.de
NHK Symhony Orchestra, Tokyo Official Site
NHK Symhony Orchestra, Tokyo from Wikipedia, the free encyclopedia
Charles Dutoit from Wikipedia, the free encyclopedia
Anna Prohaska from Wikipedia, the free encyclopedia
Качество видео: HDTV 720p
Контейнер: TS
Видео кодек: H.264
Аудио кодек: AC3
Видео поток: Overall bit rate: 12.8 Mbps, 1280*720 (16:9), at 50.000 fps, AVC (High@L4.0) (CABAC / 6 Ref Frames)
Аудио поток: German, 256 Kbps, 48.0 KHz, 2 channels, MPEG Audio (Version 1) (Layer 2)
Аудио 2: 192 Kbps, 48.0 KHz, 2 channels, MPEG Audio (Version 1) (Layer 2)
Аудио 3: German, 448 Kbps, 48.0 KHz, 16 bits, 2 channels, AC-3
Аудио 4: Multiple languages, 192 Kbps, 48.0 KHz, 2 channels, MPEG Audio (Version 1) (Layer 2)
Источник: Digital Satellite > SkyStar HD2 (TechniSat) > raw data to HDD > Cypheros TS-Doctor > ts

MediaInfo

GeneralID : 8900 (0x22C4)Complete name : C:\rutracker.org_HD\3sat HD_NHK Symphony Orchestra (Charles Dutoit) Salzburg Festival 2013.tsFormat : MPEG-TSFile size : 9.90 GiBDuration : 1h 50mnOverall bit rate mode : VariableOverall bit rate : 12.8 Mbps
VideoID : 6510 (0x196E)Menu ID : 11150 (0x2B8E)Format : AVCFormat/Info : Advanced Video CodecFormat profile : High@L4.0Format settings, CABAC : YesFormat settings, ReFrames : 6 framesFormat settings, GOP : M=4, N=33Codec ID : 27Duration : 1h 50mnBit rate : 11.1 MbpsWidth : 1 280 pixelsHeight : 720 pixelsDisplay aspect ratio : 16:9Frame rate : 50.000 fpsColor space : YUVChroma subsampling : 4:2:0Bit depth : 8 bitsScan type : ProgressiveBits/(Pixel*Frame) : 0.241Stream size : 8.56 GiB (86%)Color primaries : BT.709Transfer characteristics : BT.709Matrix coefficients : BT.709
Audio #1ID : 6520 (0x1978)Menu ID : 11150 (0x2B8E)Format : MPEG AudioFormat version : Version 1Format profile : Layer 2Codec ID : 3Duration : 1h 50mnBit rate mode : ConstantBit rate : 256 KbpsChannel(s) : 2 channelsSampling rate : 48.0 KHzCompression mode : LossyDelay relative to video : -5msStream size : 202 MiB (2%)Language : German
Audio #2ID : 6521 (0x1979)Menu ID : 11150 (0x2B8E)Format : MPEG AudioFormat version : Version 1Format profile : Layer 2Codec ID : 3Duration : 1h 50mnBit rate mode : ConstantBit rate : 192 KbpsChannel(s) : 2 channelsSampling rate : 48.0 KHzCompression mode : LossyDelay relative to video : -5msStream size : 152 MiB (1%)
Audio #3ID : 6522 (0x197A)Menu ID : 11150 (0x2B8E)Format : AC-3Format/Info : Audio Coding 3Mode extension : CM (complete main)Format settings, Endianness : BigCodec ID : 6Duration : 1h 50mnBit rate mode : ConstantBit rate : 448 KbpsChannel(s) : 2 channelsChannel positions : Front: L RSampling rate : 48.0 KHzBit depth : 16 bitsCompression mode : LossyDelay relative to video : -17msStream size : 354 MiB (3%)Language : German
Audio #4ID : 6523 (0x197B)Menu ID : 11150 (0x2B8E)Format : MPEG AudioFormat version : Version 1Format profile : Layer 2Codec ID : 3Duration : 1h 50mnBit rate mode : ConstantBit rate : 192 KbpsChannel(s) : 2 channelsSampling rate : 48.0 KHzCompression mode : LossyDelay relative to video : -21msStream size : 152 MiB (1%)Language : Multiple languages
... info ...">

Скриншоты ... info ...


Das NHK Symphonieorchester spielt Berlioz
Das japanische NHK Symphony Orchestra spielte 2013 bei den Salzburger Festspielen unter anderem das Auftragswerk "Klage" von Toshio Hosokawa als Memorial zur Katastrophe von Fukushima.
Für das Orchester und für den 77-jährigen Dirigenten Charles Dutoit war es der erste Auftritt in Salzburg. Der in Lausanne gebürtige Schweizer ist seit 1998 mit dem Klangkörper eng verbunden und leitete die Europa-Tournee, die das Orchester zu den Festspielen führte. Charles Dutoit, jahrzehntelang Chef des Montreal Symphony Orchestra, ist regelmäßig auch bei den großen
"Stolz und glücklich"
Die "ehrenvolle Einladung" nach Salzburg war verbunden mit der Uraufführung eines Auftragswerks der Salzburger Festspiele: Toshio Hosokawa schrieb das Werk "Klage" für Sopran und Orchester auf ein Gedicht von Georg Trakl, als tönendes Memorial zur Tsunamikatastrophe von Fukushima. Dass dazu auch noch Alt- und Lehrmeister Toru Takemitsu (1930-1996) mit "November Steps" zu Wort kommt, freut den Dirigenten besonders.
Da könne man eines der Schlüsselwerke des zeitgenössischen japanischen Repertoires hören, das auch japanische Instrumente wie Biwa und Shakuhashi einsetze. Hosokawa wiederum verwende ein Set von kleinen Tempelglocken. "Das sind schon verbindende Spezifika." Als klassisches Stück steht die "Symphonie fantastique" von Berlioz auf dem Programm, ein Kernwerk auch für Dutoit. Der Besuch in Salzburg mache ihn und das Orchester "besonders stolz und glücklich".
Traditionsreiches Orchester
Der Dirigent Charles Dutoit
1926 in Tokio gegründet, wurde das NHK Symphony Orchestra seit Anfang der 1950er Jahre von der japanischen Rundfunkanstalt finanziert. "Es ist ein traditionsreiches Ensemble, das sich anfangs sehr nach Europa, insbesondere nach Deutschland orientierte, das deutsche Repertoire pflegte", so Charles Dutoit. Die Japaner sind besessen von klassischer Musik und Herbert von Karajan zum Beispiel hatte in Japan immer leichtes Spiel. Kein Wunder, dass er auch das geschichtsträchtigste Orchester Asiens dirigierte. Als sich der Musikbetrieb mit prägenden Dirigenten wie Joseph Keilberth, Ferdinand Leitner oder Ernest Ansermet internationalisierte, orientierte sich auch das NHK Symphony Orchestra zunehmend international.
~ 3sat.de



Показать сообщения:    

Текущее время: 05-Дек 11:33

Часовой пояс: UTC + 3


Вы не можете начинать темы
Вы не можете отвечать на сообщения
Вы не можете редактировать свои сообщения
Вы не можете удалять свои сообщения
Вы не можете голосовать в опросах
Вы не можете прикреплять файлы к сообщениям
Вы не можете скачивать файлы