Andre Cluytens - Live in Moscow: G.Bizet - Symphony No.1 | M.Ravel - Rapsodie Espagnole | A.Roussel - Bacchus et Ariane (Orchestre National de France) [2004, Orchestral, DVD5]


 

[Цитировать]

Live in Moscow
André Cluytens
Orchestre National de France
-
-
- Год выпуска: 2004
Лейбл: Dreamlife
Страна-производитель: Japan
Жанр: Orchestral
Продолжительность: 44'37''
Язык: Japan
Качество видео: DVD5
Формат/Контейнер: DVDVideo
Видео кодек: MPEG2
Аудио кодек: PCM
Видео поток: NTSC 4:3 (720x480), 29,9 fps
Аудио поток: PCM
Треклист:
1. G.Bizet - Symphony No.1
2. M.Ravel - Rapsodie Espagnole
3. A.Roussel - Bacchus et Ariane

Исполнители:
Orchestre National de France - André Cluytens-

Mediainfo

ОбщееПолное имя : F:\Video\Music\[Dreamlife] Cluytens at Moscow\VIDEO_TS\VIDEO_TS.BUPФормат : DVD VideoПрофиль формата : MenuРазмер файла : 8,00 КбайтРежим общего битрейта : Переменный
ВидеоИдентификатор : 224 (0xE0)Формат : MPEG VideoВерсия формата : Version 1Вид битрейта : ПеременныйШирина : 720 пикселейВысота : 480 пикселейСоотношение сторон : 4:3Частота кадров : 29,970 кадров/секСтандарт вещания : NTSCМетод сжатия : С потерями
ОбщееПолное имя : F:\Video\Music\[Dreamlife] Cluytens at Moscow\VIDEO_TS\VIDEO_TS.IFOФормат : DVD VideoПрофиль формата : MenuРазмер файла : 8,00 КбайтРежим общего битрейта : Переменный
ВидеоИдентификатор : 224 (0xE0)Формат : MPEG VideoВерсия формата : Version 1Вид битрейта : ПеременныйШирина : 720 пикселейВысота : 480 пикселейСоотношение сторон : 4:3Частота кадров : 29,970 кадров/секСтандарт вещания : NTSCМетод сжатия : С потерями
ОбщееПолное имя : F:\Video\Music\[Dreamlife] Cluytens at Moscow\VIDEO_TS\VTS_01_0.BUPФормат : DVD VideoПрофиль формата : ProgramРазмер файла : 42,0 КбайтПродолжительность : 44 м.Режим общего битрейта : ПеременныйОбщий поток : 129 бит/сек
ВидеоИдентификатор : 224 (0xE0)Формат : MPEG VideoВерсия формата : Version 2Продолжительность : 44 м.Вид битрейта : ПеременныйШирина : 720 пикселейВысота : 480 пикселейСоотношение сторон : 4:3Частота кадров : 29,970 кадров/секСтандарт вещания : NTSCМетод сжатия : С потерями
АудиоИдентификатор : 0 (0x0)Формат : PCMПродолжительность : 44 м.Каналы : 2 каналаЧастота : 48,0 КГц
Меню #1Продолжительность : 44 м.00:00:00.000 : Chapter 100:07:26.466 : Chapter 200:13:27.499 : Chapter 300:17:30.365 : Chapter 400:19:56.165 : Chapter 500:23:01.431 : Chapter 600:29:05.164 : Chapter 7List (Audio) : 0
Меню #2Продолжительность : 16 с.00:00:00.000 : Chapter 1List (Audio) : 0
Меню #3
ОбщееПолное имя : F:\Video\Music\[Dreamlife] Cluytens at Moscow\VIDEO_TS\VTS_01_0.IFOФормат : DVD VideoПрофиль формата : ProgramРазмер файла : 42,0 КбайтПродолжительность : 44 м.Режим общего битрейта : ПеременныйОбщий поток : 129 бит/сек
ВидеоИдентификатор : 224 (0xE0)Формат : MPEG VideoВерсия формата : Version 2Продолжительность : 44 м.Вид битрейта : ПеременныйШирина : 720 пикселейВысота : 480 пикселейСоотношение сторон : 4:3Частота кадров : 29,970 кадров/секСтандарт вещания : NTSCМетод сжатия : С потерями
АудиоИдентификатор : 0 (0x0)Формат : PCMПродолжительность : 44 м.Каналы : 2 каналаЧастота : 48,0 КГц
Меню #1Продолжительность : 44 м.00:00:00.000 : Chapter 100:07:26.466 : Chapter 200:13:27.499 : Chapter 300:17:30.365 : Chapter 400:19:56.165 : Chapter 500:23:01.431 : Chapter 600:29:05.164 : Chapter 7List (Audio) : 0
Меню #2Продолжительность : 16 с.00:00:00.000 : Chapter 1List (Audio) : 0
Меню #3
ОбщееПолное имя : F:\Video\Music\[Dreamlife] Cluytens at Moscow\VIDEO_TS\VTS_01_0.VOBФормат : MPEG-PSРазмер файла : 456 КбайтПродолжительность : 33 мс.Режим общего битрейта : ПеременныйОбщий поток : 113 Мбит/сек
ВидеоИдентификатор : 224 (0xE0)Формат : MPEG VideoВерсия формата : Version 2Профиль формата : Main@MainПараметр BVOP формата : НетПараметр матрицы формата : ВыборочнаяПродолжительность : 33 мс.Вид битрейта : ПеременныйМаксимальный битрейт : 4587 Кбит/секШирина : 720 пикселейВысота : 480 пикселейСоотношение сторон : 4:3Частота кадров : 29,970 кадров/секСтандарт вещания : NTSCЦветовое пространство : YUVСубдискретизация насыщенности : 4:2:0Битовая глубина : 8 битТип развёртки : ПрогрессивнаяПорядок развёртки : Верхнее поле первоеМетод сжатия : С потерямиОсновные цвета : BT.601 NTSCХарактеристики трансфера : BT.601Коэффициенты матрицы : BT.601
ТекстИдентификатор : 189 (0xBD)-32 (0x20)Формат : RLEФормат/Информация : Run-length encodingРежим смешивания : DVD-Video
Меню
ОбщееПолное имя : F:\Video\Music\[Dreamlife] Cluytens at Moscow\VIDEO_TS\VTS_01_1.VOBФормат : MPEG-PSРазмер файла : 1024 МбайтПродолжительность : 14 м.Режим общего битрейта : ПеременныйОбщий поток : 9802 Кбит/сек
ВидеоИдентификатор : 224 (0xE0)Формат : MPEG VideoВерсия формата : Version 2Профиль формата : Main@MainПараметр BVOP формата : ДаПараметр матрицы формата : ВыборочнаяПараметр GOP формата : M=3, N=15Структура изображения : FrameПродолжительность : 14 м.Вид битрейта : ПеременныйБитрейт : 8071 Кбит/секМаксимальный битрейт : 9800 Кбит/секШирина : 720 пикселейВысота : 480 пикселейСоотношение сторон : 4:3Частота кадров : 29,970 кадров/секСтандарт вещания : ComponentЦветовое пространство : YUVСубдискретизация насыщенности : 4:2:0Битовая глубина : 8 битТип развёртки : ЧересстрочнаяПорядок развёртки : Верхнее поле первоеМетод сжатия : С потерямиБит/(Пиксели*Кадры) : 0.779Временной код первого кадра : 01:46:00:00Оригинал временного кода : Group of pictures headerGOP, открыто/закрыто : ОткрытоGOP, открыто/закрыто на первом кадре : ЗакрытоРазмер потока : 843 Мбайт (82%)Основные цвета : BT.601 NTSCХарактеристики трансфера : BT.601Коэффициенты матрицы : BT.601
АудиоИдентификатор : 189 (0xBD)-160 (0xA0)Формат : PCMПараметр Endianness формата : BigПараметр Sign формата : SignedРежим смешивания : DVD-VideoПродолжительность : 14 м.Вид битрейта : ПостоянныйБитрейт : 1536 Кбит/секКаналы : 2 каналаЧастота : 48,0 КГцБитовая глубина : 16 битРазмер потока : 160 Мбайт (16%)
Меню
ОбщееПолное имя : F:\Video\Music\[Dreamlife] Cluytens at Moscow\VIDEO_TS\VTS_01_2.VOBФормат : MPEG-PSРазмер файла : 1024 МбайтПродолжительность : 14 м.Режим общего битрейта : ПеременныйОбщий поток : 9636 Кбит/сек
ВидеоИдентификатор : 224 (0xE0)Формат : MPEG VideoВерсия формата : Version 2Профиль формата : Main@MainПараметр BVOP формата : ДаПараметр матрицы формата : ВыборочнаяПараметр GOP формата : M=3, N=15Структура изображения : FrameПродолжительность : 14 м.Вид битрейта : ПеременныйБитрейт : 7908 Кбит/секМаксимальный битрейт : 9800 Кбит/секШирина : 720 пикселейВысота : 480 пикселейСоотношение сторон : 4:3Частота кадров : 29,970 кадров/секСтандарт вещания : ComponentЦветовое пространство : YUVСубдискретизация насыщенности : 4:2:0Битовая глубина : 8 битТип развёртки : ЧересстрочнаяПорядок развёртки : Верхнее поле первоеМетод сжатия : С потерямиБит/(Пиксели*Кадры) : 0.763Временной код первого кадра : 01:14:35:14Оригинал временного кода : Group of pictures headerРазмер потока : 840 Мбайт (82%)Основные цвета : BT.601 NTSCХарактеристики трансфера : BT.601Коэффициенты матрицы : BT.601
АудиоИдентификатор : 189 (0xBD)-160 (0xA0)Формат : PCMПараметр Endianness формата : BigПараметр Sign формата : SignedРежим смешивания : DVD-VideoПродолжительность : 14 м.Вид битрейта : ПостоянныйБитрейт : 1536 Кбит/секКаналы : 2 каналаЧастота : 48,0 КГцБитовая глубина : 16 битЗадержка видео : -397 мс.Размер потока : 163 Мбайт (16%)
Меню
ОбщееПолное имя : F:\Video\Music\[Dreamlife] Cluytens at Moscow\VIDEO_TS\VTS_01_3.VOBФормат : MPEG-PSРазмер файла : 1024 МбайтПродолжительность : 14 м.Режим общего битрейта : ПеременныйОбщий поток : 9632 Кбит/сек
ВидеоИдентификатор : 224 (0xE0)Формат : MPEG VideoВерсия формата : Version 2Профиль формата : Main@MainПараметр BVOP формата : ДаПараметр матрицы формата : ВыборочнаяПараметр GOP формата : M=3, N=15Структура изображения : FrameПродолжительность : 14 м.Вид битрейта : ПеременныйБитрейт : 7905 Кбит/секМаксимальный битрейт : 9800 Кбит/секШирина : 720 пикселейВысота : 480 пикселейСоотношение сторон : 4:3Частота кадров : 29,970 кадров/секСтандарт вещания : ComponentЦветовое пространство : YUVСубдискретизация насыщенности : 4:2:0Битовая глубина : 8 битТип развёртки : ЧересстрочнаяПорядок развёртки : Верхнее поле первоеМетод сжатия : С потерямиБит/(Пиксели*Кадры) : 0.763Временной код первого кадра : 01:29:26:08Оригинал временного кода : Group of pictures headerGOP, открыто/закрыто : ОткрытоРазмер потока : 840 Мбайт (82%)Основные цвета : BT.601 NTSCХарактеристики трансфера : BT.601Коэффициенты матрицы : BT.601
АудиоИдентификатор : 189 (0xBD)-160 (0xA0)Формат : PCMПараметр Endianness формата : BigПараметр Sign формата : SignedРежим смешивания : DVD-VideoПродолжительность : 14 м.Вид битрейта : ПостоянныйБитрейт : 1536 Кбит/секКаналы : 2 каналаЧастота : 48,0 КГцБитовая глубина : 16 битЗадержка видео : -642 мс.Размер потока : 163 Мбайт (16%)
Меню
ОбщееПолное имя : F:\Video\Music\[Dreamlife] Cluytens at Moscow\VIDEO_TS\VTS_01_4.VOBФормат : MPEG-PSРазмер файла : 18,1 МбайтПродолжительность : 20 с.Режим общего битрейта : ПеременныйОбщий поток : 7424 Кбит/сек
ВидеоИдентификатор : 224 (0xE0)Формат : MPEG VideoВерсия формата : Version 2Профиль формата : Main@MainПараметр BVOP формата : ДаПараметр матрицы формата : ВыборочнаяПараметр GOP формата : M=3, N=15Структура изображения : FrameПродолжительность : 19 с.Вид битрейта : ПеременныйБитрейт : 5740 Кбит/секМаксимальный битрейт : 9800 Кбит/секШирина : 720 пикселейВысота : 480 пикселейСоотношение сторон : 4:3Частота кадров : 29,970 кадров/секСтандарт вещания : ComponentЦветовое пространство : YUVСубдискретизация насыщенности : 4:2:0Битовая глубина : 8 битТип развёртки : ЧересстрочнаяПорядок развёртки : Верхнее поле первоеМетод сжатия : С потерямиБит/(Пиксели*Кадры) : 0.554Временной код первого кадра : 01:44:17:07Оригинал временного кода : Group of pictures headerGOP, открыто/закрыто : ОткрытоРазмер потока : 13,5 Мбайт (75%)Основные цвета : BT.601 NTSCХарактеристики трансфера : BT.601Коэффициенты матрицы : BT.601
АудиоИдентификатор : 189 (0xBD)-160 (0xA0)Формат : PCMПараметр Endianness формата : BigПараметр Sign формата : SignedРежим смешивания : DVD-VideoПродолжительность : 20 с.Вид битрейта : ПостоянныйБитрейт : 1536 Кбит/секКаналы : 2 каналаЧастота : 48,0 КГцБитовая глубина : 16 битЗадержка видео : -737 мс.Размер потока : 3,75 Мбайт (21%)
Меню

Скриншоты








Показать сообщения:    

Текущее время: 06-Дек 22:57

Часовой пояс: UTC + 3


Вы не можете начинать темы
Вы не можете отвечать на сообщения
Вы не можете редактировать свои сообщения
Вы не можете удалять свои сообщения
Вы не можете голосовать в опросах
Вы не можете прикреплять файлы к сообщениям
Вы не можете скачивать файлы