L. van Beethoven - Symphonie Nr.6 (Sinfonieorchester des Bayerischen Rundfunks - L.Maazel) [1995, Orchestral, DVD5]


 

[Цитировать]

Lorin Maazel
L. van Beethoven - Symphonie Nr.6
-
-
- Год выпуска: 1995
Лейбл: Dreamlife
Страна-производитель: Japan
Жанр: Orchestral
Продолжительность: 66'31''
Язык: Japanese
Качество видео: DVD5
Формат/Контейнер: DVDVideo
Видео кодек: MPEG2
Аудио кодек: PCM
Видео поток: NTSC 4:3 (720x480), 29,9 fps
Аудио поток: PCM, AC-3
Ludwig van Beethoven:
1. Symphonie Nr.6
2. Scene und Aria "Ah, Perfido!"

Charlotte Margiono
Sinfonieorchester des Bayerischen Rundfunks - Lorin Maazel

Mediainfo

ОбщееПолное имя : F:\Video\Music\Maazel Beethoven Symphony No.6\Cover.jpgФормат : JPEGРазмер файла : 10,4 Мбайт
ИзображенияФормат : JPEGШирина : 6752 пикселяВысота : 4295 пикселейЦветовое пространство : YUVСубдискретизация насыщенности : 4:4:4Битовая глубина : 8 битМетод сжатия : С потерямиРазмер потока : 10,4 Мбайт (100%)
ОбщееПолное имя : F:\Video\Music\Maazel Beethoven Symphony No.6\Front.jpgФормат : JPEGРазмер файла : 72,5 Кбайт
ИзображенияФормат : JPEGШирина : 374 пикселяВысота : 500 пикселейЦветовое пространство : YUVСубдискретизация насыщенности : 4:2:2Битовая глубина : 8 битМетод сжатия : С потерямиРазмер потока : 72,5 Кбайт (100%)
ОбщееПолное имя : F:\Video\Music\Maazel Beethoven Symphony No.6\VIDEO_TS\VIDEO_TS.BUPФормат : DVD VideoПрофиль формата : MenuРазмер файла : 12,0 КбайтРежим общего битрейта : Переменный
ВидеоИдентификатор : 224 (0xE0)Формат : MPEG VideoВерсия формата : Version 2Вид битрейта : ПеременныйШирина : 720 пикселейВысота : 480 пикселейСоотношение сторон : 4:3Частота кадров : 29,970 кадров/секСтандарт вещания : NTSCМетод сжатия : С потерями
ТекстФормат : RLEФормат/Информация : Run-length encodingБитовая глубина : 2 бит
ОбщееПолное имя : F:\Video\Music\Maazel Beethoven Symphony No.6\VIDEO_TS\VIDEO_TS.IFOФормат : DVD VideoПрофиль формата : MenuРазмер файла : 12,0 КбайтРежим общего битрейта : Переменный
ВидеоИдентификатор : 224 (0xE0)Формат : MPEG VideoВерсия формата : Version 2Вид битрейта : ПеременныйШирина : 720 пикселейВысота : 480 пикселейСоотношение сторон : 4:3Частота кадров : 29,970 кадров/секСтандарт вещания : NTSCМетод сжатия : С потерями
ТекстФормат : RLEФормат/Информация : Run-length encodingБитовая глубина : 2 бит
ОбщееПолное имя : F:\Video\Music\Maazel Beethoven Symphony No.6\VIDEO_TS\VIDEO_TS.VOBФормат : MPEG-PSРазмер файла : 156 КбайтПродолжительность : 33 мс.Режим общего битрейта : ПеременныйОбщий поток : 38,7 Мбит/сек
ВидеоИдентификатор : 224 (0xE0)Формат : MPEG VideoВерсия формата : Version 2Профиль формата : Main@MainПараметр BVOP формата : НетПараметр матрицы формата : ВыборочнаяПродолжительность : 33 мс.Вид битрейта : ПеременныйМаксимальный битрейт : 8000 Кбит/секШирина : 720 пикселейВысота : 480 пикселейСоотношение сторон : 4:3Частота кадров : 29,970 кадров/секСтандарт вещания : NTSCЦветовое пространство : YUVСубдискретизация насыщенности : 4:2:0Битовая глубина : 8 битТип развёртки : ПрогрессивнаяПорядок развёртки : Верхнее поле первоеМетод сжатия : С потерямиВременной код первого кадра : 00:00:00:00Оригинал временного кода : Group of pictures headerОсновные цвета : BT.601 PALХарактеристики трансфера : BT.470 System B, BT.470 System GКоэффициенты матрицы : BT.601
ТекстИдентификатор : 189 (0xBD)-32 (0x20)Формат : RLEФормат/Информация : Run-length encodingРежим смешивания : DVD-Video
Меню
ОбщееПолное имя : F:\Video\Music\Maazel Beethoven Symphony No.6\VIDEO_TS\VTS_01_0.BUPФормат : DVD VideoПрофиль формата : ProgramРазмер файла : 34,0 КбайтПродолжительность : 17 с.Режим общего битрейта : ПеременныйОбщий поток : 15,9 Кбит/сек
ВидеоИдентификатор : 224 (0xE0)Формат : MPEG VideoВерсия формата : Version 2Продолжительность : 17 с.Вид битрейта : ПеременныйШирина : 720 пикселейВысота : 480 пикселейСоотношение сторон : 4:3Частота кадров : 29,970 кадров/секСтандарт вещания : NTSCМетод сжатия : С потерями
Аудио #1Формат : AC-3Формат/Информация : Audio Coding 3Продолжительность : 17 с.Каналы : 6 каналовЧастота : 48,0 КГцМетод сжатия : С потерямиЯзык : English
Аудио #2Формат : AC-3Формат/Информация : Audio Coding 3Продолжительность : 17 с.Каналы : 6 каналовЧастота : 48,0 КГцМетод сжатия : С потерямиЯзык : English
Аудио #3Формат : AC-3Формат/Информация : Audio Coding 3Продолжительность : 17 с.Каналы : 6 каналовЧастота : 48,0 КГцМетод сжатия : С потерямиЯзык : English
Аудио #4Формат : AC-3Формат/Информация : Audio Coding 3Продолжительность : 17 с.Каналы : 6 каналовЧастота : 48,0 КГцМетод сжатия : С потерямиЯзык : English
Аудио #5Формат : AC-3Формат/Информация : Audio Coding 3Продолжительность : 17 с.Каналы : 6 каналовЧастота : 48,0 КГцМетод сжатия : С потерямиЯзык : English
Аудио #6Формат : AC-3Формат/Информация : Audio Coding 3Продолжительность : 17 с.Каналы : 6 каналовЧастота : 48,0 КГцМетод сжатия : С потерямиЯзык : English
Аудио #7Формат : AC-3Формат/Информация : Audio Coding 3Продолжительность : 17 с.Каналы : 6 каналовЧастота : 48,0 КГцМетод сжатия : С потерямиЯзык : English
Аудио #8Формат : AC-3Формат/Информация : Audio Coding 3Продолжительность : 17 с.Каналы : 6 каналовЧастота : 48,0 КГцМетод сжатия : С потерямиЯзык : English
Текст #1Формат : RLEФормат/Информация : Run-length encodingБитовая глубина : 2 бит
Текст #2Формат : RLEФормат/Информация : Run-length encodingБитовая глубина : 2 бит
Текст #3Формат : RLEФормат/Информация : Run-length encodingБитовая глубина : 2 бит
Текст #4Формат : RLEФормат/Информация : Run-length encodingБитовая глубина : 2 бит
Текст #5Формат : RLEФормат/Информация : Run-length encodingБитовая глубина : 2 бит
Текст #6Формат : RLEФормат/Информация : Run-length encodingБитовая глубина : 2 бит
Текст #7Формат : RLEФормат/Информация : Run-length encodingБитовая глубина : 2 бит
Текст #8Формат : RLEФормат/Информация : Run-length encodingБитовая глубина : 2 бит
Текст #9Формат : RLEФормат/Информация : Run-length encodingБитовая глубина : 2 бит
Текст #10Формат : RLEФормат/Информация : Run-length encodingБитовая глубина : 2 бит
Текст #11Формат : RLEФормат/Информация : Run-length encodingБитовая глубина : 2 бит
Текст #12Формат : RLEФормат/Информация : Run-length encodingБитовая глубина : 2 бит
Текст #13Формат : RLEФормат/Информация : Run-length encodingБитовая глубина : 2 бит
Текст #14Формат : RLEФормат/Информация : Run-length encodingБитовая глубина : 2 бит
Текст #15Формат : RLEФормат/Информация : Run-length encodingБитовая глубина : 2 бит
Текст #16Формат : RLEФормат/Информация : Run-length encodingБитовая глубина : 2 бит
Текст #17Формат : RLEФормат/Информация : Run-length encodingБитовая глубина : 2 бит
Текст #18Формат : RLEФормат/Информация : Run-length encodingБитовая глубина : 2 бит
Текст #19Формат : RLEФормат/Информация : Run-length encodingБитовая глубина : 2 бит
Текст #20Формат : RLEФормат/Информация : Run-length encodingБитовая глубина : 2 бит
Текст #21Формат : RLEФормат/Информация : Run-length encodingБитовая глубина : 2 бит
Текст #22Формат : RLEФормат/Информация : Run-length encodingБитовая глубина : 2 бит
Текст #23Формат : RLEФормат/Информация : Run-length encodingБитовая глубина : 2 бит
Текст #24Формат : RLEФормат/Информация : Run-length encodingБитовая глубина : 2 бит
Текст #25Формат : RLEФормат/Информация : Run-length encodingБитовая глубина : 2 бит
Текст #26Формат : RLEФормат/Информация : Run-length encodingБитовая глубина : 2 бит
Текст #27Формат : RLEФормат/Информация : Run-length encodingБитовая глубина : 2 бит
Текст #28Формат : RLEФормат/Информация : Run-length encodingБитовая глубина : 2 бит
Текст #29Формат : RLEФормат/Информация : Run-length encodingБитовая глубина : 2 бит
Текст #30Формат : RLEФормат/Информация : Run-length encodingБитовая глубина : 2 бит
Текст #31Формат : RLEФормат/Информация : Run-length encodingБитовая глубина : 2 бит
Текст #32Формат : RLEФормат/Информация : Run-length encodingБитовая глубина : 2 бит
МенюПродолжительность : 17 с.00:00:00.000 : Chapter 1
ОбщееПолное имя : F:\Video\Music\Maazel Beethoven Symphony No.6\VIDEO_TS\VTS_01_0.IFOФормат : DVD VideoПрофиль формата : ProgramРазмер файла : 34,0 КбайтПродолжительность : 17 с.Режим общего битрейта : ПеременныйОбщий поток : 15,9 Кбит/сек
ВидеоИдентификатор : 224 (0xE0)Формат : MPEG VideoВерсия формата : Version 2Продолжительность : 17 с.Вид битрейта : ПеременныйШирина : 720 пикселейВысота : 480 пикселейСоотношение сторон : 4:3Частота кадров : 29,970 кадров/секСтандарт вещания : NTSCМетод сжатия : С потерями
Аудио #1Формат : AC-3Формат/Информация : Audio Coding 3Продолжительность : 17 с.Каналы : 6 каналовЧастота : 48,0 КГцМетод сжатия : С потерямиЯзык : English
Аудио #2Формат : AC-3Формат/Информация : Audio Coding 3Продолжительность : 17 с.Каналы : 6 каналовЧастота : 48,0 КГцМетод сжатия : С потерямиЯзык : English
Аудио #3Формат : AC-3Формат/Информация : Audio Coding 3Продолжительность : 17 с.Каналы : 6 каналовЧастота : 48,0 КГцМетод сжатия : С потерямиЯзык : English
Аудио #4Формат : AC-3Формат/Информация : Audio Coding 3Продолжительность : 17 с.Каналы : 6 каналовЧастота : 48,0 КГцМетод сжатия : С потерямиЯзык : English
Аудио #5Формат : AC-3Формат/Информация : Audio Coding 3Продолжительность : 17 с.Каналы : 6 каналовЧастота : 48,0 КГцМетод сжатия : С потерямиЯзык : English
Аудио #6Формат : AC-3Формат/Информация : Audio Coding 3Продолжительность : 17 с.Каналы : 6 каналовЧастота : 48,0 КГцМетод сжатия : С потерямиЯзык : English
Аудио #7Формат : AC-3Формат/Информация : Audio Coding 3Продолжительность : 17 с.Каналы : 6 каналовЧастота : 48,0 КГцМетод сжатия : С потерямиЯзык : English
Аудио #8Формат : AC-3Формат/Информация : Audio Coding 3Продолжительность : 17 с.Каналы : 6 каналовЧастота : 48,0 КГцМетод сжатия : С потерямиЯзык : English
Текст #1Формат : RLEФормат/Информация : Run-length encodingБитовая глубина : 2 бит
Текст #2Формат : RLEФормат/Информация : Run-length encodingБитовая глубина : 2 бит
Текст #3Формат : RLEФормат/Информация : Run-length encodingБитовая глубина : 2 бит
Текст #4Формат : RLEФормат/Информация : Run-length encodingБитовая глубина : 2 бит
Текст #5Формат : RLEФормат/Информация : Run-length encodingБитовая глубина : 2 бит
Текст #6Формат : RLEФормат/Информация : Run-length encodingБитовая глубина : 2 бит
Текст #7Формат : RLEФормат/Информация : Run-length encodingБитовая глубина : 2 бит
Текст #8Формат : RLEФормат/Информация : Run-length encodingБитовая глубина : 2 бит
Текст #9Формат : RLEФормат/Информация : Run-length encodingБитовая глубина : 2 бит
Текст #10Формат : RLEФормат/Информация : Run-length encodingБитовая глубина : 2 бит
Текст #11Формат : RLEФормат/Информация : Run-length encodingБитовая глубина : 2 бит
Текст #12Формат : RLEФормат/Информация : Run-length encodingБитовая глубина : 2 бит
Текст #13Формат : RLEФормат/Информация : Run-length encodingБитовая глубина : 2 бит
Текст #14Формат : RLEФормат/Информация : Run-length encodingБитовая глубина : 2 бит
Текст #15Формат : RLEФормат/Информация : Run-length encodingБитовая глубина : 2 бит
Текст #16Формат : RLEФормат/Информация : Run-length encodingБитовая глубина : 2 бит
Текст #17Формат : RLEФормат/Информация : Run-length encodingБитовая глубина : 2 бит
Текст #18Формат : RLEФормат/Информация : Run-length encodingБитовая глубина : 2 бит
Текст #19Формат : RLEФормат/Информация : Run-length encodingБитовая глубина : 2 бит
Текст #20Формат : RLEФормат/Информация : Run-length encodingБитовая глубина : 2 бит
Текст #21Формат : RLEФормат/Информация : Run-length encodingБитовая глубина : 2 бит
Текст #22Формат : RLEФормат/Информация : Run-length encodingБитовая глубина : 2 бит
Текст #23Формат : RLEФормат/Информация : Run-length encodingБитовая глубина : 2 бит
Текст #24Формат : RLEФормат/Информация : Run-length encodingБитовая глубина : 2 бит
Текст #25Формат : RLEФормат/Информация : Run-length encodingБитовая глубина : 2 бит
Текст #26Формат : RLEФормат/Информация : Run-length encodingБитовая глубина : 2 бит
Текст #27Формат : RLEФормат/Информация : Run-length encodingБитовая глубина : 2 бит
Текст #28Формат : RLEФормат/Информация : Run-length encodingБитовая глубина : 2 бит
Текст #29Формат : RLEФормат/Информация : Run-length encodingБитовая глубина : 2 бит
Текст #30Формат : RLEФормат/Информация : Run-length encodingБитовая глубина : 2 бит
Текст #31Формат : RLEФормат/Информация : Run-length encodingБитовая глубина : 2 бит
Текст #32Формат : RLEФормат/Информация : Run-length encodingБитовая глубина : 2 бит
МенюПродолжительность : 17 с.00:00:00.000 : Chapter 1
ОбщееПолное имя : F:\Video\Music\Maazel Beethoven Symphony No.6\VIDEO_TS\VTS_01_0.VOBФормат : MPEG-PSРазмер файла : 6,33 МбайтПродолжительность : 33 мс.Режим общего битрейта : ПеременныйОбщий поток : 1609 Мбит/сек
ВидеоИдентификатор : 224 (0xE0)Формат : MPEG VideoВерсия формата : Version 2Профиль формата : Main@MainПараметр BVOP формата : НетПараметр матрицы формата : ВыборочнаяПараметр GOP формата : N=1Продолжительность : 33 мс.Вид битрейта : ПеременныйМаксимальный битрейт : 8000 Кбит/секШирина : 720 пикселейВысота : 480 пикселейСоотношение сторон : 4:3Частота кадров : 29,970 кадров/секСтандарт вещания : NTSCЦветовое пространство : YUVСубдискретизация насыщенности : 4:2:0Битовая глубина : 8 битТип развёртки : ПрогрессивнаяПорядок развёртки : Верхнее поле первоеМетод сжатия : С потерямиОсновные цвета : BT.601 PALХарактеристики трансфера : BT.470 System B, BT.470 System GКоэффициенты матрицы : BT.601
ТекстИдентификатор : 189 (0xBD)-32 (0x20)Формат : RLEФормат/Информация : Run-length encodingРежим смешивания : DVD-Video
Меню
ОбщееПолное имя : F:\Video\Music\Maazel Beethoven Symphony No.6\VIDEO_TS\VTS_01_1.VOBФормат : MPEG-PSРазмер файла : 12,3 МбайтПродолжительность : 17 с.Режим общего битрейта : ПеременныйОбщий поток : 5869 Кбит/сек
ВидеоИдентификатор : 224 (0xE0)Формат : MPEG VideoВерсия формата : Version 2Профиль формата : Main@MainПараметр BVOP формата : ДаПараметр матрицы формата : ВыборочнаяПараметр GOP формата : M=3, N=15Структура изображения : FrameПродолжительность : 17 с.Вид битрейта : ПеременныйБитрейт : 5752 Кбит/секМаксимальный битрейт : 8000 Кбит/секШирина : 720 пикселейВысота : 480 пикселейСоотношение сторон : 4:3Частота кадров : 29,970 кадров/секСтандарт вещания : NTSCЦветовое пространство : YUVСубдискретизация насыщенности : 4:2:0Битовая глубина : 8 битТип развёртки : ЧересстрочнаяПорядок развёртки : Верхнее поле первоеМетод сжатия : С потерямиБит/(Пиксели*Кадры) : 0.555Временной код первого кадра : 02:08:59:15Оригинал временного кода : Group of pictures headerGOP, открыто/закрыто : ЗакрытоРазмер потока : 12,0 Мбайт (98%)
Меню
ОбщееПолное имя : F:\Video\Music\Maazel Beethoven Symphony No.6\VIDEO_TS\VTS_02_0.BUPФормат : DVD VideoПрофиль формата : ProgramРазмер файла : 54,0 КбайтПродолжительность : 1 ч. 6 м.Режим общего битрейта : ПеременныйОбщий поток : 111 бит/сек
ВидеоИдентификатор : 224 (0xE0)Формат : MPEG VideoВерсия формата : Version 2Продолжительность : 1 ч. 6 м.Вид битрейта : ПеременныйШирина : 720 пикселейВысота : 480 пикселейСоотношение сторон : 4:3Частота кадров : 29,970 кадров/секСтандарт вещания : NTSCМетод сжатия : С потерями
АудиоИдентификатор : 0 (0x0)Формат : PCMПродолжительность : 1 ч. 6 м.Каналы : 2 каналаЧастота : 48,0 КГц
МенюПродолжительность : 1 ч. 6 м.00:00:00.000 : Chapter 100:00:46.500 : Chapter 200:14:12.000 : Chapter 300:28:03.000 : Chapter 400:34:26.500 : Chapter 500:38:17.000 : Chapter 600:51:01.000 : Chapter 7List (Audio) : 0
ОбщееПолное имя : F:\Video\Music\Maazel Beethoven Symphony No.6\VIDEO_TS\VTS_02_0.IFOФормат : DVD VideoПрофиль формата : ProgramРазмер файла : 54,0 КбайтПродолжительность : 1 ч. 6 м.Режим общего битрейта : ПеременныйОбщий поток : 111 бит/сек
ВидеоИдентификатор : 224 (0xE0)Формат : MPEG VideoВерсия формата : Version 2Продолжительность : 1 ч. 6 м.Вид битрейта : ПеременныйШирина : 720 пикселейВысота : 480 пикселейСоотношение сторон : 4:3Частота кадров : 29,970 кадров/секСтандарт вещания : NTSCМетод сжатия : С потерями
АудиоИдентификатор : 0 (0x0)Формат : PCMПродолжительность : 1 ч. 6 м.Каналы : 2 каналаЧастота : 48,0 КГц
МенюПродолжительность : 1 ч. 6 м.00:00:00.000 : Chapter 100:00:46.500 : Chapter 200:14:12.000 : Chapter 300:28:03.000 : Chapter 400:34:26.500 : Chapter 500:38:17.000 : Chapter 600:51:01.000 : Chapter 7List (Audio) : 0
ОбщееПолное имя : F:\Video\Music\Maazel Beethoven Symphony No.6\VIDEO_TS\VTS_02_0.VOBФормат : MPEG-PSРазмер файла : 156 КбайтПродолжительность : 33 мс.Режим общего битрейта : ПеременныйОбщий поток : 38,7 Мбит/сек
ВидеоИдентификатор : 224 (0xE0)Формат : MPEG VideoВерсия формата : Version 2Профиль формата : Main@MainПараметр BVOP формата : НетПараметр матрицы формата : ВыборочнаяПродолжительность : 33 мс.Вид битрейта : ПеременныйМаксимальный битрейт : 8000 Кбит/секШирина : 720 пикселейВысота : 480 пикселейСоотношение сторон : 4:3Частота кадров : 29,970 кадров/секСтандарт вещания : NTSCЦветовое пространство : YUVСубдискретизация насыщенности : 4:2:0Битовая глубина : 8 битТип развёртки : ПрогрессивнаяПорядок развёртки : Верхнее поле первоеМетод сжатия : С потерямиВременной код первого кадра : 00:00:00:00Оригинал временного кода : Group of pictures headerОсновные цвета : BT.601 PALХарактеристики трансфера : BT.470 System B, BT.470 System GКоэффициенты матрицы : BT.601
ТекстИдентификатор : 189 (0xBD)-32 (0x20)Формат : RLEФормат/Информация : Run-length encodingРежим смешивания : DVD-Video
Меню
ОбщееПолное имя : F:\Video\Music\Maazel Beethoven Symphony No.6\VIDEO_TS\VTS_02_1.VOBФормат : MPEG-PSРазмер файла : 1024 МбайтПродолжительность : 16 м.Общий поток : 8493 Кбит/сек
ВидеоИдентификатор : 224 (0xE0)Формат : MPEG VideoВерсия формата : Version 2Профиль формата : Main@MainПараметр BVOP формата : ДаПараметр матрицы формата : ВыборочнаяПараметр GOP формата : M=3, N=15Структура изображения : FrameПродолжительность : 16 м.Битрейт : 6800 Кбит/секШирина : 720 пикселейВысота : 480 пикселейСоотношение сторон : 4:3Частота кадров : 29,970 кадров/секСтандарт вещания : NTSCЦветовое пространство : YUVСубдискретизация насыщенности : 4:2:0Битовая глубина : 8 битТип развёртки : ЧересстрочнаяПорядок развёртки : Верхнее поле первоеМетод сжатия : С потерямиБит/(Пиксели*Кадры) : 0.657Временной код первого кадра : 00:59:59:00Оригинал временного кода : Group of pictures headerGOP, открыто/закрыто : ЗакрытоРазмер потока : 818 Мбайт (80%)
АудиоИдентификатор : 189 (0xBD)-160 (0xA0)Формат : PCMПараметр Endianness формата : BigПараметр Sign формата : SignedРежим смешивания : DVD-VideoПродолжительность : 16 м.Вид битрейта : ПостоянныйБитрейт : 1536 Кбит/секКаналы : 2 каналаЧастота : 48,0 КГцБитовая глубина : 16 битРазмер потока : 185 Мбайт (18%)
Меню
ОбщееПолное имя : F:\Video\Music\Maazel Beethoven Symphony No.6\VIDEO_TS\VTS_02_2.VOBФормат : MPEG-PSРазмер файла : 1024 МбайтПродолжительность : 16 м.Общий поток : 8494 Кбит/сек
ВидеоИдентификатор : 224 (0xE0)Формат : MPEG VideoВерсия формата : Version 2Профиль формата : Main@MainПараметр BVOP формата : ДаПараметр матрицы формата : ВыборочнаяПараметр GOP формата : M=3, N=15Структура изображения : FrameПродолжительность : 16 м.Битрейт : 6800 Кбит/секШирина : 720 пикселейВысота : 480 пикселейСоотношение сторон : 4:3Частота кадров : 29,970 кадров/секСтандарт вещания : NTSCЦветовое пространство : YUVСубдискретизация насыщенности : 4:2:0Битовая глубина : 8 битТип развёртки : ЧересстрочнаяПорядок развёртки : Верхнее поле первоеМетод сжатия : С потерямиБит/(Пиксели*Кадры) : 0.657Временной код первого кадра : 01:16:49:15Оригинал временного кода : Group of pictures headerGOP, открыто/закрыто : ЗакрытоРазмер потока : 818 Мбайт (80%)
АудиоИдентификатор : 189 (0xBD)-160 (0xA0)Формат : PCMПараметр Endianness формата : BigПараметр Sign формата : SignedРежим смешивания : DVD-VideoПродолжительность : 16 м.Вид битрейта : ПостоянныйБитрейт : 1536 Кбит/секКаналы : 2 каналаЧастота : 48,0 КГцБитовая глубина : 16 битЗадержка видео : -450 мс.Размер потока : 185 Мбайт (18%)
Меню
ОбщееПолное имя : F:\Video\Music\Maazel Beethoven Symphony No.6\VIDEO_TS\VTS_02_3.VOBФормат : MPEG-PSРазмер файла : 1024 МбайтПродолжительность : 16 м.Общий поток : 8494 Кбит/сек
ВидеоИдентификатор : 224 (0xE0)Формат : MPEG VideoВерсия формата : Version 2Профиль формата : Main@MainПараметр BVOP формата : ДаПараметр матрицы формата : ВыборочнаяПараметр GOP формата : M=3, N=15Структура изображения : FrameПродолжительность : 16 м.Битрейт : 6800 Кбит/секШирина : 720 пикселейВысота : 480 пикселейСоотношение сторон : 4:3Частота кадров : 29,970 кадров/секСтандарт вещания : NTSCЦветовое пространство : YUVСубдискретизация насыщенности : 4:2:0Битовая глубина : 8 битТип развёртки : ЧересстрочнаяПорядок развёртки : Верхнее поле первоеМетод сжатия : С потерямиБит/(Пиксели*Кадры) : 0.657Временной код первого кадра : 01:33:40:00Оригинал временного кода : Group of pictures headerGOP, открыто/закрыто : ЗакрытоРазмер потока : 818 Мбайт (80%)
АудиоИдентификатор : 189 (0xBD)-160 (0xA0)Формат : PCMПараметр Endianness формата : BigПараметр Sign формата : SignedРежим смешивания : DVD-VideoПродолжительность : 16 м.Вид битрейта : ПостоянныйБитрейт : 1536 Кбит/секКаналы : 2 каналаЧастота : 48,0 КГцБитовая глубина : 16 битЗадержка видео : -630 мс.Размер потока : 185 Мбайт (18%)
Меню
ОбщееПолное имя : F:\Video\Music\Maazel Beethoven Symphony No.6\VIDEO_TS\VTS_02_4.VOBФормат : MPEG-PSРазмер файла : 974 МбайтПродолжительность : 16 м.Общий поток : 8492 Кбит/сек
ВидеоИдентификатор : 224 (0xE0)Формат : MPEG VideoВерсия формата : Version 2Профиль формата : Main@MainПараметр BVOP формата : ДаПараметр матрицы формата : ВыборочнаяПараметр GOP формата : M=3, N=15Структура изображения : FrameПродолжительность : 16 м.Битрейт : 6800 Кбит/секШирина : 720 пикселейВысота : 480 пикселейСоотношение сторон : 4:3Частота кадров : 29,970 кадров/секСтандарт вещания : NTSCЦветовое пространство : YUVСубдискретизация насыщенности : 4:2:0Битовая глубина : 8 битТип развёртки : ЧересстрочнаяПорядок развёртки : Верхнее поле первоеМетод сжатия : С потерямиБит/(Пиксели*Кадры) : 0.657Временной код первого кадра : 01:50:30:00Оригинал временного кода : Group of pictures headerGOP, открыто/закрыто : ЗакрытоРазмер потока : 778 Мбайт (80%)
АудиоИдентификатор : 189 (0xBD)-160 (0xA0)Формат : PCMПараметр Endianness формата : BigПараметр Sign формата : SignedРежим смешивания : DVD-VideoПродолжительность : 16 м.Вид битрейта : ПостоянныйБитрейт : 1536 Кбит/секКаналы : 2 каналаЧастота : 48,0 КГцБитовая глубина : 16 битЗадержка видео : -339 мс.Размер потока : 176 Мбайт (18%)
Меню

Скриншоты









Показать сообщения:    

Текущее время: 07-Дек 13:37

Часовой пояс: UTC + 3


Вы не можете начинать темы
Вы не можете отвечать на сообщения
Вы не можете редактировать свои сообщения
Вы не можете удалять свои сообщения
Вы не можете голосовать в опросах
Вы не можете прикреплять файлы к сообщениям
Вы не можете скачивать файлы