Ludwig van Beethoven - Piano Concerto No. 5 (Academy of St. Martin in the Fields, Murray Perahia) [2014, Classical / Orchestral, HDTV 720p]


 

[Цитировать]

Ludwig van Beethoven
Klavierkonzert Nr. 5 Es-Dur op. 73

Academy of St. Martin in the Fields • Murray Perahia

-
Год выпуска: 2014
Лейбл: ZDF
Жанр: Classical / Orchestral
Продолжительность: 00:41:27
Режиссер: Hanne Kaisik
Исполнители:
Murray Perahia - dirigent und solist
Academy of St. Martin in the Fields
Треклист:
Ludwig van Beethoven - Klavierkonzert Nr. 5 Es-Dur op. 73
Доп. информация:
Rheingau Musik Festival, Kurhaus Wiesbaden, 12. September 2014
Murray Perahia spielt Beethovens Klavierkonzert Nr. 5 arte.tv
Murray Perahia Official Site
Murray Perahia from Wikipedia, the free encyclopedia
Academy of St. Martin in the Fields Official Site
Academy of St. Martin in the Fields from Wikipedia, the free encyclopedia
Качество видео: HDTV 720p
Контейнер: TS
Видео кодек: H.264
Аудио кодек: AC3
Видео поток: Overall bit rate: 10.9 Mbps, 1280*720 (16:9), at 50.000 fps, AVC (High@L4.0) (CABAC / 4 Ref Frames)
Аудио поток: German, 192 Kbps, 48.0 KHz, 2 channels, MPEG Audio (Version 1) (Layer 2)
Аудио 2: French, 192 Kbps, 48.0 KHz, 2 channels, MPEG Audio (Version 1) (Layer 2)
Аудио 3: Multiple languages, 448 Kbps, 48.0 KHz, 16 bits, 2 channels, AC-3
Аудио 4: 192 Kbps, 48.0 KHz, 2 channels, MPEG Audio (Version 1) (Layer 2)
Источник: Digital Satellite > SkyStar HD2 (TechniSat) > raw data to HDD > Cypheros TS-Doctor > ts

MediaInfo

GeneralID : 8900 (0x22C4)Complete name : C:\rutracker.org_HD\arte HD_Beethoven, Piano Concerto No. 5 (Murray Perahia) 2014.tsFormat : MPEG-TSFile size : 3.15 GiBDuration : 41mn 27sOverall bit rate mode : VariableOverall bit rate : 10.9 Mbps
VideoID : 5111 (0x13F7)Menu ID : 10302 (0x283E)Format : AVCFormat/Info : Advanced Video CodecFormat profile : High@L4.0Format settings, CABAC : YesFormat settings, ReFrames : 4 framesFormat settings, GOP : M=3, N=32Codec ID : 27Duration : 41mn 27sBit rate : 9 293 KbpsWidth : 1 280 pixelsHeight : 720 pixelsDisplay aspect ratio : 16:9Frame rate : 50.000 fpsColor space : YUVChroma subsampling : 4:2:0Bit depth : 8 bitsScan type : ProgressiveBits/(Pixel*Frame) : 0.202Stream size : 2.69 GiB (86%)
Audio #1ID : 5112 (0x13F8)Menu ID : 10302 (0x283E)Format : MPEG AudioFormat version : Version 1Format profile : Layer 2Codec ID : 3Duration : 41mn 27sBit rate mode : ConstantBit rate : 192 KbpsChannel(s) : 2 channelsSampling rate : 48.0 KHzCompression mode : LossyDelay relative to video : -10msStream size : 56.9 MiB (2%)Language : German
Audio #2ID : 5113 (0x13F9)Menu ID : 10302 (0x283E)Format : MPEG AudioFormat version : Version 1Format profile : Layer 2Codec ID : 3Duration : 41mn 27sBit rate mode : ConstantBit rate : 192 KbpsChannel(s) : 2 channelsSampling rate : 48.0 KHzCompression mode : LossyDelay relative to video : -10msStream size : 56.9 MiB (2%)Language : French
Audio #3ID : 5116 (0x13FC)Menu ID : 10302 (0x283E)Format : AC-3Format/Info : Audio Coding 3Mode extension : CM (complete main)Format settings, Endianness : BigCodec ID : 6Duration : 41mn 27sBit rate mode : ConstantBit rate : 448 KbpsChannel(s) : 2 channelsChannel positions : Front: L RSampling rate : 48.0 KHzBit depth : 16 bitsCompression mode : LossyDelay relative to video : -17msStream size : 133 MiB (4%)Language : Multiple languages
Audio #4ID : 5117 (0x13FD)Menu ID : 10302 (0x283E)Format : MPEG AudioFormat version : Version 1Format profile : Layer 2Codec ID : 3Duration : 41mn 27sBit rate mode : ConstantBit rate : 192 KbpsChannel(s) : 2 channelsSampling rate : 48.0 KHzCompression mode : LossyDelay relative to video : -1msStream size : 56.9 MiB (2%)
... info ...">

Скриншоты ... info ...


"Festival Beethoven" bei ARTE: Murray Perahia spielt eines der beliebtesten Klavierkonzerte der Klassischen Musik - Beethovens Nr. 5. Begleitet wird er von der Academy of St Martin in the Fields, einem der herausragenden Orchester für Musik der Wiener Klassik. Beim Konzert, das 2014 im Kurhaus Wiesbaden aufgezeichnet wurde, dirigiert der Weltstar das Orchester selbst.
Der gebürtige New Yorker Murray Perahia ist ein Pianist der Superlative: Von der Queen zum Ritter geschlagen, mehrfach mit dem Emmy, dem Echo Klassik sowie vielen internationalen Preisen geehrt, gelang es ihm als erstem Klassikkünstler, die ersten beiden Plätze der Klassik-Charts in Deutschland zugleich zu belegen. Dabei ist der ständige Gastdirigent der Londoner Academy of St Martin in the Fields alles andere als stromlinienförmig: Anbiederung an Publikum und Geschmack kann man ihm nicht nachsagen. Bekannt ist er im Gegenteil für kompromissloses und detailversessenes Studium und Einstudieren der Partituren.
Mit Beethovens 5. Klavierkonzert hat sich Perahia eines der beliebtesten Stücke der Konzertliteratur überhaupt ausgesucht: 1809 komponiert, gilt dieses Klavierkonzert als ein Höhepunkt im Schaffen Beethovens.
2014 gastierte Perahia erstmalig beim Rheingau Musik Festival, das für seine ungewöhnlichen und landschaftlich wunderschön gelegenen Konzertorte genauso bekannt ist wie für sein hochwertiges Programm. Perahias Debüt beim Festival führte ihn in das Kurhaus Wiesbaden, dessen repräsentativer Konzertsaal den idealen Rahmen für diesen Auftritt bot.
~ arte.tv/guide



Показать сообщения:    

Текущее время: 02-Дек 23:06

Часовой пояс: UTC + 3


Вы не можете начинать темы
Вы не можете отвечать на сообщения
Вы не можете редактировать свои сообщения
Вы не можете удалять свои сообщения
Вы не можете голосовать в опросах
Вы не можете прикреплять файлы к сообщениям
Вы не можете скачивать файлы