Fruhling in Wien (Franz Schubert, Ludwig van Beethoven, Otto Nicolai, Richard Wagner, Johann Strauss, Franz von Suppe, Franz Lehar, Richard Heuberger) Wiener Symphoniker, Simone Young, Johan Botha [2014, Classical / Orchestral / Vocal, HDTV 720p]


 

[Цитировать]

Frühling in Wien 2014
Das Osterkonzert der Wiener Symphoniker
Wiener Symphoniker • Simone Young

-
Год выпуска: 2014
Лейбл: ORF, arte
Жанр: Classical / Orchestral / Vocal
Продолжительность: 01:28:59
Язык: немецкий (Barbara Rett - präsentation)
Режиссер: Agnes Méth (bildregie)
Исполнители:
Johan Botha - tenor
Florian Zwiauer - violine
Wiener Symphoniker
Simone Young - musikalische leitung
Треклист:
Franz Schubert - Ouvertüre zum Singspiel "Die Freunde von Salamanca"
Ludwig van Beethoven - Romanze für Violine und Orchester Nr. 2 F-Dur op. 50
Otto Nicolai - Ouvertüre zur komischen Oper "Die lustigen Weiber von Windsor"
Richard Wagner
- Vorspiel zum 1. Akt der Oper "Die Meistersinger von Nürnberg"
- "Morgendlich leuchtend in rosigem Schein", 3. Akt der Oper "Die Meistersinger von Nürnberg"
Johann Strauss
- Ouvertüre zur Operette "Der Zigeunerbaron"
- "Als flotter Geist", Auftrittslied des Barinkay aus der Operettte "Der Zigeunerbaron"
Franz von Suppé - Ouvertüre zum Lustspiel "Ein Morgen, ein Mittag, ein Abend in Wien"
Franz Lehár - "Freunde, das Leben ist lebenswert! ", Auftrittslied des Octavio aus der Operette "Giuditta"
Richard Heuberger - Ouvertüre zur Operette "Der Opernball"
Franz Lehár - "Das Land des Lächelns". Dein ist main ganzes Herz
Доп. информация:
20. April 2014, Musikverein Wien, Großer Saal
Frühling in Wien 2014 3sat.de
Frühling in Wien 2014 wienersymphoniker.at
Frühling in Wien 2014 tv.orf.at
Simone Young Official Site
Simone Young from Wikipedia, the free encyclopedia
Johan Botha from Wikipedia, the free encyclopedia
Качество видео: HDTV 720p
Контейнер: TS
Видео кодек: H.264
Аудио кодек: AC3
Видео поток: Overall bit rate: 14.3 Mbps, 1280*720 (16:9), at 50.000 fps, AVC (High@L4.0) (CABAC / 6 Ref Frames)
Аудио поток: German, 256 Kbps, 48.0 KHz, 2 channels, MPEG Audio (Version 1) (Layer 2)
Аудио 2: 192 Kbps, 48.0 KHz, 2 channels, MPEG Audio (Version 1) (Layer 2)
Аудио 3: German, 448 Kbps, 48.0 KHz, 16 bits, 5 channels, AC-3
Аудио 4: Multiple languages, 192 Kbps, 48.0 KHz, 2 channels, MPEG Audio (Version 1) (Layer 2)
Источник: Digital Satellite > SkyStar HD2 (TechniSat) > raw data to HDD > Cypheros TS-Doctor > ts

MediaInfo

GeneralID : 8900 (0x22C4)Complete name : C:\rutracker.org_HD\3sat HD_Fruhling in Wien (Simone Young) 2014.tsFormat : MPEG-TSFile size : 8.88 GiBDuration : 1h 28mnOverall bit rate mode : VariableOverall bit rate : 14.3 Mbps
VideoID : 6510 (0x196E)Menu ID : 11150 (0x2B8E)Format : AVCFormat/Info : Advanced Video CodecFormat profile : High@L4.0Format settings, CABAC : YesFormat settings, ReFrames : 6 framesCodec ID : 27Duration : 1h 28mnBit rate : 12.5 MbpsWidth : 1 280 pixelsHeight : 720 pixelsDisplay aspect ratio : 16:9Frame rate : 50.000 fpsColor space : YUVChroma subsampling : 4:2:0Bit depth : 8 bitsScan type : ProgressiveBits/(Pixel*Frame) : 0.271Stream size : 7.76 GiB (87%)Color primaries : BT.709Transfer characteristics : BT.709Matrix coefficients : BT.709
Audio #1ID : 6520 (0x1978)Menu ID : 11150 (0x2B8E)Format : MPEG AudioFormat version : Version 1Format profile : Layer 2Codec ID : 3Duration : 1h 28mnBit rate mode : ConstantBit rate : 256 KbpsChannel(s) : 2 channelsSampling rate : 48.0 KHzCompression mode : LossyDelay relative to video : -1msStream size : 163 MiB (2%)Language : German
Audio #2ID : 6521 (0x1979)Menu ID : 11150 (0x2B8E)Format : MPEG AudioFormat version : Version 1Format profile : Layer 2Codec ID : 3Duration : 1h 28mnBit rate mode : ConstantBit rate : 192 KbpsChannel(s) : 2 channelsSampling rate : 48.0 KHzCompression mode : LossyDelay relative to video : -1msStream size : 122 MiB (1%)
Audio #3ID : 6522 (0x197A)Menu ID : 11150 (0x2B8E)Format : AC-3Format/Info : Audio Coding 3Mode extension : CM (complete main)Format settings, Endianness : BigCodec ID : 6Duration : 1h 28mnBit rate mode : ConstantBit rate : 448 KbpsChannel(s) : 5 channelsChannel positions : Front: L C R, Side: L RSampling rate : 48.0 KHzBit depth : 16 bitsCompression mode : LossyStream size : 285 MiB (3%)Language : German
Audio #4ID : 6523 (0x197B)Menu ID : 11150 (0x2B8E)Format : MPEG AudioFormat version : Version 1Format profile : Layer 2Codec ID : 3Duration : 1h 28mnBit rate mode : ConstantBit rate : 192 KbpsChannel(s) : 2 channelsSampling rate : 48.0 KHzCompression mode : LossyDelay relative to video : -17msStream size : 122 MiB (1%)Language : Multiple languages
... info ...">

Скриншоты ... info ...


Frühling in Wien
Das Osterkonzert der Wiener Symphoniker
Das Osterkonzert der Wiener Symphoniker bekommt stimmgewaltige Unterstützung: Johan Botha wird Wagner und Léhar singen. Mit Simone Young steht erstmals eine Frau am Pult der Veranstaltung.
Frauen sind auch thematisch stark vertreten: Otto Nikolais "Die lustigen Weiber von Windsor" und die "Badner Madln" von Karl Komzá. Aus Franz Lehárs "Giuditta" steht das weltbekannte "Freunde, das Leben ist lebenswert" auf dem Programm.
Für Ludwig van Beethovens Romanze für Violine und Orchester, op. 50 hat das Orchester einen ihrer Konzertmeister, Florian Zwieauer, eingeladen, den Solopart zu interpretieren. Darüber hinaus gibt es bekannte Melodien aus dem "Zigeunerbaron" von Johann Strauß zu hören und eher ungewöhnliche Ausschnitte aus Richard Wagners "Die Meistersinger von Nürnberg".
~ 3sat.de



Показать сообщения:    

Текущее время: 11-Дек 12:55

Часовой пояс: UTC + 3


Вы не можете начинать темы
Вы не можете отвечать на сообщения
Вы не можете редактировать свои сообщения
Вы не можете удалять свои сообщения
Вы не можете голосовать в опросах
Вы не можете прикреплять файлы к сообщениям
Вы не можете скачивать файлы