Шостакович - Concerto for violin and orchestra No.1, Symphony No.11 \'The Year 1905\' (The Mariinsky Theatre Orchestra / Симфонический оркестр Мариинского театра, Валерий Гергиев, Вадим Репин) [2014, classical, HDTVRip]


 

[Цитировать]

Шостакович - Concerto for violin and orchestra No.1, Symphony No.11 'The Year 1905'
(The Mariinsky Theatre Orchestra / Симфонический оркестр Мариинского театра, Валерий Гергиев, Вадим Репин)

Год выпуска: 2014
Лейбл: Mezzo HD
Страна-производитель: Франция
Жанр: classical
Продолжительность: 01:41:59
Перевод: не требуется
Субтитры: нет
Режиссер/Хореограф: Valery Gergiev
Исполнители: The Mariinsky Theatre Orchestra St.Petersburg
Valery Gergiev
Vadim Repin (Soloist)
Треклист:
=1= Dmitri Chostakovitch - Concerto for violin and orchestra No.1 in A minor op.77, Soloist Vadim Repin
=2= Dmitri Chostakovitch - Symphony No.11 'The Year 1905' in G minor op.103

Описание:
Chostakovitch / Шостакович - Concerto for violin and orchestra No.1 / Symphony No.11 'The Year 1905' (The Mariinsky Theatre Orchestra / Симфонический оркестр Мариинского театра, Валерий Гергиев, Вадим Репин)
Recorded at Salle Pleyer 18th february 2014
The Mariinsky Theatre Orchestra St.Petersburg
Valery Gergiev
Vadim Repin (Soloist)
Доп. информация:
Шостакович - Symphony No.1 & 2, Piano Concert No.2, Symphony No.15
Шостакович - Concerto for violin and Orchestra No.2, Symphony No.7 'Leningrad'
Качество видео: HDTVRip
Формат/Контейнер: MPEG4
Видео кодек: H.264
Аудио кодек: AAC
Видео поток: 1920x1080 (16:9), 25.00 fps, AVC, 11.5 Мбит, 0.220 bits/pixel
Аудио поток: 48.0 KHz, AAC-LC, 2 ch, stereo, 384 Kbps
Отчёт MediaInfo / BDInfo">

Скриншоты Отчёт MediaInfo / BDInfo


Полное имя : C:\Users\Валера\Videos\MY MUSIC\Chostakovitch - Con 1-Sym 11 -[2014]-\Chostakovitch - Concerto 1, Symphony 11 (2014).mp4Формат : MPEG-4Профиль формата : Base Media / Version 2Идентификатор кодека : mp42Размер файла : 8,46 ГбайтПродолжительность : 1 ч. 41 м.Режим общего битрейта : ПеременныйОбщий поток : 11,9 Мбит/секДата кодирования : UTC 2015-04-09 14:27:51Дата пометки : UTC 2015-04-09 14:27:51
ВидеоИдентификатор : 2Формат : AVCФормат/Информация : Advanced Video CodecПрофиль формата : Main@L4.0Параметр CABAC формата : ДаПараметр ReFrames формата : 2 кадраПараметр GOP формата : M=3, N=30Идентификатор кодека : avc1Идентификатор кодека/Информация : Advanced Video CodingПродолжительность : 1 ч. 41 м.Продолжительность оригинала : 1 ч. 41 м.Вид битрейта : ПеременныйБитрейт : 11,5 Мбит/секМаксимальный битрейт : 12,0 Мбит/секШирина : 1920 пикселейВысота : 1088 пикселейВысота оригинала : 1080 пикселейСоотношение сторон : 16:9Соотношение сторон в оригинале : 16:9Режим частоты кадров : ПостоянныйЧастота кадров : 25,000 кадров/секЧастота кадров в оригинале : 12,500 кадров/секЦветовое пространство : YUVСубдискретизация насыщенности : 4:2:0Битовая глубина : 8 битТип развёртки : ПрогрессивнаяБит/(Пиксели*Кадры) : 0.220Размер потока : 8,18 Гбайт (97%)Размер потока оригинала : 8,18 Гбайт (97%)Язык : EnglishДата кодирования : UTC 2015-04-09 14:27:51Дата пометки : UTC 2015-04-09 14:27:51
АудиоИдентификатор : 1Формат : AACФормат/Информация : Advanced Audio CodecПрофиль формата : LCИдентификатор кодека : 40Продолжительность : 1 ч. 41 м.Продолжительность оригинала : 1 ч. 41 м.Вид битрейта : ПостоянныйБитрейт : 384 Кбит/секНоминальный битрейт : 128 Кбит/секКаналы : 2 каналаРасположение каналов : Front: L RЧастота : 48,0 КГцМетод сжатия : С потерямиРазмер потока : 280 Мбайт (3%)Размер потока оригинала : 280 Мбайт (3%)Язык : EnglishДата кодирования : UTC 2015-04-09 14:27:51Дата пометки : UTC 2015-04-09 14:27:51mdhd_Duration : 6119010



Показать сообщения:    

Текущее время: 11-Дек 16:51

Часовой пояс: UTC + 3


Вы не можете начинать темы
Вы не можете отвечать на сообщения
Вы не можете редактировать свои сообщения
Вы не можете удалять свои сообщения
Вы не можете голосовать в опросах
Вы не можете прикреплять файлы к сообщениям
Вы не можете скачивать файлы