Isabelle Faust & Bernard Haitink - Osterfestspiele 2015 (Ludwig van Beethoven - Violin Concerto; Symphony No. 6 "Pastorale") Berliner Philharmoniker [2015, Classical / Orchestral / Violin, HDTV 720p]


 

[Цитировать]

Isabelle Faust & Bernard Haitink
Osterfestspiele 2015

-
Год выпуска: 2015
Лейбл: SWR, EuroArts
Жанр: Classical / Orchestral / Violin
Продолжительность: 01:31:57
Язык: немецкий, французский (moderation)
Режиссер: Torben Schmidt Jacobsen
Исполнители:
Isabelle Faust - violin
Bernard Haitink - musikalische leitung
Berliner Philharmoniker
Треклист:
Ludwig van Beethoven
- Violinkonzert D-Dur op. 61
- Symphonie Nr. 6 F-Dur op. 68 "Pastorale"
Доп. информация:
Osterfestspiele 2015, Festspielhaus Baden-Baden
Osterfestspiele 2015 aus dem Festspielhaus Baden-Baden arte.tv/guide
Isabelle Faust from Wikipedia, the free encyclopedia
Bernard Haitink from Wikipedia, the free encyclopedia
Berliner Philharmoniker Official Site
Berliner Philharmoniker from Wikipedia, the free encyclopedia
Berliner Philharmoniker материал из Википедии - свободной энциклопедии
Качество видео: HDTV 720p
Контейнер: TS
Видео кодек: H.264
Аудио кодек: AC3
Видео поток: Overall bit rate: 10.8 Mbps, 1280*720 (16:9), at 50.000 fps, AVC (High@L4.0) (CABAC / 4 Ref Frames)
Аудио поток: German, 192 Kbps, 48.0 KHz, 2 channels, MPEG Audio (Version 1) (Layer 2)
Аудио 2: French, 192 Kbps, 48.0 KHz, 2 channels, MPEG Audio (Version 1) (Layer 2)
Аудио 3: Multiple languages, 448 Kbps, 48.0 KHz, 16 bits, 6 channels, AC-3
Аудио 4: 192 Kbps, 48.0 KHz, 2 channels, MPEG Audio (Version 1) (Layer 2)
Источник: Digital Satellite > SkyStar HD2 (TechniSat) > raw data to HDD > Cypheros TS-Doctor > ts

MediaInfo

GeneralID : 8900 (0x22C4)Complete name : C:\rutracker.org_HD\arte HD_Isabelle Faust & Bernard Haitink - Osterfestspiele 2015.tsFormat : MPEG-TSFile size : 6.94 GiBDuration : 1h 31mnOverall bit rate mode : VariableOverall bit rate : 10.8 Mbps
VideoID : 5111 (0x13F7)Menu ID : 10302 (0x283E)Format : AVCFormat/Info : Advanced Video CodecFormat profile : High@L4.0Format settings, CABAC : YesFormat settings, ReFrames : 4 framesCodec ID : 27Duration : 1h 31mnBit rate : 9 235 KbpsWidth : 1 280 pixelsHeight : 720 pixelsDisplay aspect ratio : 16:9Frame rate : 50.000 fpsColor space : YUVChroma subsampling : 4:2:0Bit depth : 8 bitsScan type : ProgressiveBits/(Pixel*Frame) : 0.200Stream size : 5.93 GiB (85%)
Audio #1ID : 5112 (0x13F8)Menu ID : 10302 (0x283E)Format : MPEG AudioFormat version : Version 1Format profile : Layer 2Codec ID : 3Duration : 1h 31mnBit rate mode : ConstantBit rate : 192 KbpsChannel(s) : 2 channelsSampling rate : 48.0 KHzCompression mode : LossyDelay relative to video : -922msStream size : 126 MiB (2%)Language : German
Audio #2ID : 5113 (0x13F9)Menu ID : 10302 (0x283E)Format : MPEG AudioFormat version : Version 1Format profile : Layer 2Codec ID : 3Duration : 1h 31mnBit rate mode : ConstantBit rate : 192 KbpsChannel(s) : 2 channelsSampling rate : 48.0 KHzCompression mode : LossyDelay relative to video : -922msStream size : 126 MiB (2%)Language : French
Audio #3ID : 5116 (0x13FC)Menu ID : 10302 (0x283E)Format : AC-3Format/Info : Audio Coding 3Mode extension : CM (complete main)Format settings, Endianness : BigCodec ID : 6Duration : 1h 31mnBit rate mode : ConstantBit rate : 448 KbpsChannel(s) : 6 channelsChannel positions : Front: L C R, Side: L R, LFESampling rate : 48.0 KHzBit depth : 16 bitsCompression mode : LossyDelay relative to video : -893msStream size : 295 MiB (4%)Language : Multiple languages
Audio #4ID : 5117 (0x13FD)Menu ID : 10302 (0x283E)Format : MPEG AudioFormat version : Version 1Format profile : Layer 2Codec ID : 3Duration : 1h 31mnBit rate mode : ConstantBit rate : 192 KbpsChannel(s) : 2 channelsSampling rate : 48.0 KHzCompression mode : LossyDelay relative to video : -912msStream size : 126 MiB (2%)
... info ...">

Скриншоты ... info ...


OSTERFESTSPIELE 2015 AUS DEM FESTSPIELHAUS BADEN-BADEN
Mit Isabelle Faust, Bernard Haitink und den Berliner Philharmonikern
ARTE überträgt auch in diesem Jahr wieder einen Teil der Osterfestspiele aus dem Festspielhaus Baden-Baden. Mit dabei sind die Berliner Philharmoniker und die preisgekrönte Violinistin Isabelle Faust, die von Dirigent Bernard Haitink durch Beethovens Sinfonie Nr. 6 F-Dur op. 68 "Pastorale" und das Violinkonzert D-Dur op. 61 geleitet werden.
Den niederländischen Dirigenten Bernard Haitink und die Berliner Philharmoniker verbindet eine mehrere Jahrzehnte währende Zusammenarbeit. Doch nicht nur das Orchester schätzt diesen Künstler sehr. Gefragt, mit welchem Dirigenten er sein Orchester besonders gern öfter hören würde, fiel Sir Simon Rattle sofort Haitinks Name ein. Der Holländer ist eine Autorität, auch und besonders für die Musik Beethovens. Er dirigiert dessen Sinfonien nach der neuen Kritischen Gesamtausgabe.
Als Preisträgerin des Leopold-Mozart-Wettbewerbs in Augsburg und des Paganini-Wettbewerbs in Genua musizierte Isabelle Faust bereits in jungen Jahren mit bedeutenden Orchestern in aller Welt, wie den Berliner Philharmonikern, dem Boston Symphony Orchestra, dem NHK Symphony Orchestra Tokyo, dem Freiburger Barockorchester oder dem Chamber Orchestra of Europe. Regelmäßig arbeitet sie mit Dirigenten wie Frans Brüggen, Mariss Jansons, Giovanni Antonini, Philippe Herreweghe, Daniel Harding und Bernard Haitink zusammen. Eine besonders enge Beziehung verband sie in den letzten Jahren mit Claudio Abbado, mit dem sie in mehreren Ländern konzertierte und für Harmonia Mundi eine mehrfach preisgekrönte CD mit den Violinkonzerten Beethovens und Bergs einspielte. Die Aufnahme mit dem Orchestra Mozart wurde mit dem Diapason d’Or, einem Echo Klassik, dem Gramophone Award 2012 und dem japanischen Record Academy Award ausgezeichnet. Isabelle Faust spielt die Dornröschen-Stradivari von 1704, eine Leihgabe der L-Bank Baden-Württemberg.
~ arte.tv/guide
[



Показать сообщения:    

Текущее время: 03-Дек 22:44

Часовой пояс: UTC + 3


Вы не можете начинать темы
Вы не можете отвечать на сообщения
Вы не можете редактировать свои сообщения
Вы не можете удалять свои сообщения
Вы не можете голосовать в опросах
Вы не можете прикреплять файлы к сообщениям
Вы не можете скачивать файлы