Gustav Mahler - Symphonies Nos. 1 and 2 (Camilla Tilling, Lilli Paasikivi, Frankfurt Radio Symphony Orchestra, Paavo Jarvi) [2010/2012/2014, Classical, Blu-ray]


 

[Цитировать]

Gustav Mahler - Symphonies Nos. 1 & 2 - Frankfurt Radio Symphony Orchestra, Paavo Järvi
Год выпуска: 2010/2012/2014
Лейбл: C Major, Unitel Classica
Страна-производитель: Австрия
Жанр: Classical
Продолжительность: 58:53 + 01:30:08
Язык: Немецкий
Перевод: Нет
Субтитры: German, English, French, Spanish, Chinese, Korean, Japanese
Режиссер: Michael Ciniselli
Исполнители:
Camilla Tilling (soprano)
Lilli Paasikivi (mezzo-soprano)
Bavarian Radio Chorus
North German Radio Chorus
Frankfurt Radio Symphony Orchestra
Paavo Järvi

Треклист:
1 Vorspann 00:49
Gustav Mahler (1860 - 1911)
Sinfonie Nr. 1 D-Dur "Der Titan"
2 1. Langsam, schleppend - Wie ein Naturlaut 15:42
3 2. Kräftig bewegt, doch nicht zu schnell - Trio 08:26
4 3. Feierlich und gemessen, ohne zu schleppen 11:55
5 4. Stürmisch bewegt 19:47
6 Applaus & Abspann 00:17
7 Vorspann 00:36
Sinfonie Nr. 2 c-moll "Auferstehungs-Sinfonie"
8 1. Allegro maestoso: Mit durchaus ernstem 23:41
9 2. Andante moderato: Sehr gemächlich 10:23
10 3. Scherzo: In ruhig fließender Bewegung 10:55
11 4. Urlicht: Sehr feierlich, aber schlicht 05:47
12 5. Im Tempo des Scherzo 36:14
13 Applaus & Abspann 00:17
14 Introduction to Symphony Nr. 1 (Dokumentation) 08:53
15 Introduction to Symphony Nr. 2 (Dokumentation) 08:55
• Recorded at Rheingau Musik Festival, 2010 (Symphony No. 2) and 2012 (Symphony No. 1)
Bonus:
- Introductions to Symphonies Nos. 1 and 2 by Paavo Järvi.
Доп. информация: Источник hdclub, релизер PeterGriffin (оригинальный релизер pjhhd)
Качество видео: Blu-ray
Формат/Контейнер: BDMV
Видео кодек: MPEG-4 AVC - H.264
Аудио кодек: LPCM, DTS-HD
Видео поток: MPEG-4 AVC Video / 25349 kbps / 1080i / 29.970 fps / 16:9 / High Profile 4.1
Аудио поток 1: LPCM Audio / 2.0 / 48 kHz / 2304 kbps / 24-bit
Аудио поток 2: DTS-HD Master Audio / 5.1 / 48 kHz / 3711 kbps / 24-bit (DTS Core: 5.1 / 48 kHz / 1509 kbps / 24-bit)

BDInfo Report

DISC INFO:
Disc Title: MAHLER SYMPHONIES 1 AND 2Disc Size: 42,335,412,434 bytesProtection: AACSBD-Java: NoBDInfo: 0.5.8
PLAYLIST REPORT:
Name: 00003.MPLSLength: 2:29:18.582 (h:m:s.ms)Size: 37,065,775,104 bytesTotal Bitrate: 33.10 Mbps
VIDEO:
Codec Bitrate Description----- ------- -----------MPEG-4 AVC Video 25349 kbps 1080i / 29.970 fps / 16:9 / High Profile 4.1
AUDIO:
Codec Language Bitrate Description----- -------- ------- -----------LPCM Audio German 2304 kbps 2.0 / 48 kHz / 2304 kbps / 24-bitDTS-HD Master Audio German 3711 kbps 5.1 / 48 kHz / 3711 kbps / 24-bit (DTS Core: 5.1 / 48 kHz / 1509 kbps / 24-bit)
SUBTITLES:
Codec Language Bitrate Description----- -------- ------- -----------Presentation Graphics German 0.845 kbpsPresentation Graphics English 0.823 kbpsPresentation Graphics French 0.862 kbpsPresentation Graphics Spanish 0.806 kbpsPresentation Graphics Chinese 0.740 kbpsPresentation Graphics Korean 0.799 kbpsPresentation Graphics Japanese 0.722 kbps
FILES:
Name Time In Length Size Total Bitrate---- ------- ------ ---- -------------00007.M2TS 0:00:00.000 0:58:52.996 14,923,505,664 33,79200016.M2TS 0:58:52.996 1:30:07.502 22,132,623,360 32,74400006.M2TS 2:29:00.498 0:00:09.042 4,823,040 4,26700001.M2TS 2:29:09.540 0:00:09.042 4,823,040 4,267
Gustav Mahler - Symphonies Nos. 3 & 4 - Frankfurt Radio Symphony Orchestra, Paavo Järvi (2007/2008/2014) Blu-ray
Gustav Mahler - Symphonies Nos. 5 & 6 - Frankfurt Radio Symphony Orchestra, Paavo Järvi (2011/2013/2015) Blu-ray
Gustav Mahler - Symphonies Nos. 7 & 8 - Frankfurt Radio Symphony Orchestra, Paavo Järvi (2011/2013/2015) Blu-ray
Gustav Mahler - Symphonies Nos. 9 & 10 (Adagio) - Frankfurt Radio Symphony Orchestra, Paavo Järvi (2008/2009/2015) Blu-ray



Показать сообщения:    

Текущее время: 09-Дек 08:51

Часовой пояс: UTC + 3


Вы не можете начинать темы
Вы не можете отвечать на сообщения
Вы не можете редактировать свои сообщения
Вы не можете удалять свои сообщения
Вы не можете голосовать в опросах
Вы не можете прикреплять файлы к сообщениям
Вы не можете скачивать файлы