Hollywood Sounds mit Daniel Hope (Miklos Rozsa, Erich Wolfgang Korngold, Kurt Weill) NDR Radiophilharmonie, Andrew Manze [2015, Classical / Orchestral / Violin, HDTV 720p]


 

[Цитировать]

Hollywood Sounds
mit Daniel Hope

Daniel Hope • NDR Radiophilharmonie • Andrew Manze

-
Год выпуска: 2015
Лейбл: ZDF
Жанр: Classical / Orchestral / Violin
Продолжительность: 00:57:59
Режиссер: Johannes Spiecker
Исполнители:
Daniel Hope - violin
NDR Radiophilharmonie
Andrew Manze - leitung
Треклист:
Miklós Rózsa - "Spellbound" Prelude und Love Theme
Erich Wolfgang Korngold - Violinkonzert op. 35
Kurt Weill - Suite für Violine und Orchester
Доп. информация:
Konzerthaus Berlin
Hollywood Sounds mit Daniel Hope arte.tv
Daniel Hope Official Site
Daniel Hope from Wikipedia, the free encyclopedia
Andrew Manze from Wikipedia, the free encyclopedia
Качество видео: HDTV 720p
Контейнер: TS
Видео кодек: H.264
Аудио кодек: AC3
Видео поток: Overall bit rate: 13.7 Mbps, 1280*720 (16:9), at 50.000 fps, AVC (High@L4.0) (CABAC / 4 Ref Frames)
Аудио поток: German, 192 Kbps, 48.0 KHz, 2 channels, MPEG Audio (Version 1) (Layer 2)
Аудио 2: French, 192 Kbps, 48.0 KHz, 2 channels, MPEG Audio (Version 1) (Layer 2)
Аудио 3: Multiple languages, 448 Kbps, 48.0 KHz, 16 bits, 6 channels, AC-3
Аудио 4: 192 Kbps, 48.0 KHz, 2 channels, MPEG Audio (Version 1) (Layer 2)
Источник: Digital Satellite > SkyStar HD2 (TechniSat) > raw data to HDD > Cypheros TS-Doctor > ts

MediaInfo

GeneralID : 8900 (0x22C4)Complete name : C:\rutracker.org_HD\arte HD_Hollywood Sounds mit Daniel Hope (Andrew Manze) 2015.tsFormat : MPEG-TSFile size : 5.56 GiBDuration : 57mn 59sOverall bit rate mode : VariableOverall bit rate : 13.7 Mbps
VideoID : 5111 (0x13F7)Menu ID : 10302 (0x283E)Format : AVCFormat/Info : Advanced Video CodecFormat profile : High@L4.0Format settings, CABAC : YesFormat settings, ReFrames : 4 framesCodec ID : 27Duration : 57mn 59sBit rate : 12.0 MbpsWidth : 1 280 pixelsHeight : 720 pixelsDisplay aspect ratio : 16:9Frame rate : 50.000 fpsColor space : YUVChroma subsampling : 4:2:0Bit depth : 8 bitsScan type : ProgressiveBits/(Pixel*Frame) : 0.261Stream size : 4.87 GiB (88%)
Audio #1ID : 5112 (0x13F8)Menu ID : 10302 (0x283E)Format : MPEG AudioFormat version : Version 1Format profile : Layer 2Codec ID : 3Duration : 57mn 59sBit rate mode : ConstantBit rate : 192 KbpsChannel(s) : 2 channelsSampling rate : 48.0 KHzCompression mode : LossyDelay relative to video : -1s 220msStream size : 79.6 MiB (1%)Language : German
Audio #2ID : 5113 (0x13F9)Menu ID : 10302 (0x283E)Format : MPEG AudioFormat version : Version 1Format profile : Layer 2Codec ID : 3Duration : 57mn 59sBit rate mode : ConstantBit rate : 192 KbpsChannel(s) : 2 channelsSampling rate : 48.0 KHzCompression mode : LossyDelay relative to video : -1s 220msStream size : 79.6 MiB (1%)Language : French
Audio #3ID : 5116 (0x13FC)Menu ID : 10302 (0x283E)Format : AC-3Format/Info : Audio Coding 3Mode extension : CM (complete main)Format settings, Endianness : BigCodec ID : 6Duration : 57mn 59sBit rate mode : ConstantBit rate : 448 KbpsChannel(s) : 6 channelsChannel positions : Front: L C R, Side: L R, LFESampling rate : 48.0 KHzBit depth : 16 bitsCompression mode : LossyDelay relative to video : -1s 258msStream size : 186 MiB (3%)Language : Multiple languages
Audio #4ID : 5117 (0x13FD)Menu ID : 10302 (0x283E)Format : MPEG AudioFormat version : Version 1Format profile : Layer 2Codec ID : 3Duration : 57mn 59sBit rate mode : ConstantBit rate : 192 KbpsChannel(s) : 2 channelsSampling rate : 48.0 KHzCompression mode : LossyDelay relative to video : -1s 210msStream size : 79.6 MiB (1%)
... info ...">

Скриншоты ... info ...


An seiner üppigen Orchestrierung und den schwelgerischen Klängen lässt sich sofort erkennen, dass Erich Wolfgang Korngolds Violinkonzert von 1945 aus der Feder eines äußerst erfolgreichen und mit zwei Oscars ausgezeichneten Filmmusik-Komponisten stammt.
Daniel Hopes Programm wird ergänzt mit zwei Stücken, die eigens für ihn arrangiert wurden: "Prelude" und "Love Theme" aus Alfred Hitchcocks Film "Spellbound" ("Ich kämpfe um dich"), komponiert von Miklós Rózsa.
Außerdem eine Suite für Violine und Orchester mit Songs von Kurt Weill, darunter Klassiker wie "Mack the Knife", "Speak Low" und "September Song". All diese Komponisten verbindet, dass sie ursprünglich aus Europa stammten, ihre große Karriere aber in Amerika machten. Korngold und Weill waren Juden und verließen ihre Heimat, um sich vor den Nazis in Sicherheit zu bringen. Rózsa arbeitete als Filmmusik-Komponist zunächst in London und siedelte später nach Hollywood über. Einer der ersten Filme, für die er dort die Musik schrieb, war "Spellbound", wofür er auch den ersten seiner drei Oscars erhielt. Fast 100 weitere Soundtracks folgten, darunter zu Klassikern wie "Ben Hur".
Anders als Korngold und Rózsa arbeitete Weill nicht für den Film, sondern für die Bühne. Am Broadway schrieb er Hits wie "Lady in the Dark" oder "One Touch of Venus", die Hollywood-Verfilmungen ließen nicht lange auf sich warten.
Daniel Hope gehört zu den profiliertesten Geigern der Gegenwart. Er ist ein inspirierender Musiker und setzt mit seiner klugen Programmgestaltung immer wieder Akzente, die weit über die Musik hinausweisen.
~ arte.tv/guide



Показать сообщения:    

Текущее время: 10-Дек 13:53

Часовой пояс: UTC + 3


Вы не можете начинать темы
Вы не можете отвечать на сообщения
Вы не можете редактировать свои сообщения
Вы не можете удалять свои сообщения
Вы не можете голосовать в опросах
Вы не можете прикреплять файлы к сообщениям
Вы не можете скачивать файлы