Anders Hillborg "Eleven Gates" fur Orchester; Jean Sibelius - Symphony No. 5 (Symphonieorchester des Bayerischen Rundfunks, Esa-Pekka Salonen) [2015, Classical / Orchestral, HDTV 720p]


 

[Цитировать]

Anders Hillborg "Eleven Gates" für Orchester
Jean Sibelius - Symphonie Nr. 5 Es-dur, op. 82

Symphonieorchester des Bayerischen Rundfunks • Esa-Pekka Salonen

-
Год выпуска: 2015
Лейбл: Bayerischer Rundfunk
Жанр: Classical / Orchestral
Продолжительность: 00:55:53
Режиссер: Elisabeth Malzer
Исполнители:
Esa-Pekka Salonen - dirigiert
Symphonieorchester des Bayerischen Rundfunks
Треклист:
Anders Hillborg
- "Eleven Gates" für Orchester
Jean Sibelius
- Symphonie Nr. 5 Es-dur, op. 82
Доп. информация:
Aus dem Herkulessaal der Resident München
Salonen dirigiert Sibelius und Hillborg br.de
Esa-Pekka Salonen Official Site
Esa-Pekka Salonen from Wikipedia, the free encyclopedia
Anders Hillborg Official Site
Anders Hillborg from Wikipedia, the free encyclopedia
Качество видео: HDTV 720p
Контейнер: TS
Видео кодек: H.264
Аудио кодек: AC3
Видео поток: Overall bit rate: 12.7 Mbps, 1280*720 (16:9), at 50.000 fps, AVC (High@L4.0) (CABAC / 4 Ref Frames)
Аудио поток: German, 192 Kbps, 48.0 KHz, 2 channels, MPEG Audio (Version 1) (Layer 2)
Аудио 2: 192 Kbps, 48.0 KHz, 2 channels, MPEG Audio (Version 1) (Layer 2)
Аудио 3: German, 448 Kbps, 48.0 KHz, 16 bits, 5 channels, AC-3
Источник: Digital Satellite > SkyStar HD2 (TechniSat) > raw data to HDD > Cypheros TS-Doctor > ts

MediaInfo

GeneralID : 8900 (0x22C4)Complete name : C:\rutracker.org_HD\BR HD_Anders Hillborg, Jean Sibelius (Esa-Pekka Salonen) 2015.tsFormat : MPEG-TSFile size : 4.95 GiBDuration : 55mn 54sOverall bit rate mode : VariableOverall bit rate : 12.7 Mbps
VideoID : 5201 (0x1451)Menu ID : 10326 (0x2856)Format : AVCFormat/Info : Advanced Video CodecFormat profile : High@L4.0Format settings, CABAC : YesFormat settings, ReFrames : 4 framesFormat settings, GOP : M=8, N=32Codec ID : 27Duration : 55mn 53sBit rate : 11.2 MbpsWidth : 1 280 pixelsHeight : 720 pixelsDisplay aspect ratio : 16:9Frame rate : 50.000 fpsColor space : YUVChroma subsampling : 4:2:0Bit depth : 8 bitsScan type : ProgressiveBits/(Pixel*Frame) : 0.243Stream size : 4.38 GiB (88%)
Audio #1ID : 5202 (0x1452)Menu ID : 10326 (0x2856)Format : MPEG AudioFormat version : Version 1Format profile : Layer 2Codec ID : 3Duration : 55mn 54sBit rate mode : ConstantBit rate : 192 KbpsChannel(s) : 2 channelsSampling rate : 48.0 KHzCompression mode : LossyDelay relative to video : -1s 4msStream size : 76.8 MiB (2%)Language : German
Audio #2ID : 5203 (0x1453)Menu ID : 10326 (0x2856)Format : MPEG AudioFormat version : Version 1Format profile : Layer 2Codec ID : 3Duration : 55mn 54sBit rate mode : ConstantBit rate : 192 KbpsChannel(s) : 2 channelsSampling rate : 48.0 KHzCompression mode : LossyDelay relative to video : -1s 4msStream size : 76.8 MiB (2%)
Audio #3ID : 5206 (0x1456)Menu ID : 10326 (0x2856)Format : AC-3Format/Info : Audio Coding 3Mode extension : CM (complete main)Format settings, Endianness : BigCodec ID : 6Duration : 55mn 54sBit rate mode : ConstantBit rate : 448 KbpsChannel(s) : 5 channelsChannel positions : Front: L C R, Side: L RSampling rate : 48.0 KHzBit depth : 16 bitsCompression mode : LossyDelay relative to video : -1s 81msStream size : 179 MiB (4%)Language : German
... info ...">

Скриншоты ... info ...


"Eleven Gates" des 1954 geborenen Komponisten Anders Hillborg ist eine Reise durch surreale Welten, der Übertritt von der einen zur anderen Welt erfolgt über ein Tor. Jeder der elf Teile hat eine kurze Bezeichnung, zum Beispiel "Plötzlich in dem Raum mit schnatternden Spiegeln" oder "Verwirrte Dialoge mit Specht". Wie so viele Komponisten versteht Hillborg diese Bezeichnungen aber nicht als Programm, sondern vielmehr als augenzwinkernden Fantasieanreger. Er hat das 2006 uraufgeführte Werk seinem Förderer, dem finnischen Dirigenten Esa-Pekka Salonen gewidmet.
Im zweiten Teil widmet sich Salonen seinem Landsmann Jean Sibelius und dessen 5. Symphonie. Obwohl das Werk ein Triumph wurde, Sibelius dirigierte es an seinem 50. Geburtstag und wurde als "größter Sohn des Landes gefeiert", war der Komponist lange nicht zufrieden. Kein anderes Stück zerriss ihn innerlich derartig, musste er so oft überarbeiten. Erst 1919, vier Jahre nach der Uraufführung der ersten Fassung, war Sibelius zufrieden und hob seine 5. in ihrer endgültigen Form in Helsinki aus der Taufe.
~ br.de



Показать сообщения:    

Текущее время: 06-Дек 22:51

Часовой пояс: UTC + 3


Вы не можете начинать темы
Вы не можете отвечать на сообщения
Вы не можете редактировать свои сообщения
Вы не можете удалять свои сообщения
Вы не можете голосовать в опросах
Вы не можете прикреплять файлы к сообщениям
Вы не можете скачивать файлы