Handel-Gedachtniskonzert zum 250. Todestag von George Frideric Handel (Handelfestspielorchester Halle, MDR Rundfunkchor, Hallenser Madrigalisten, Howard Arman, Ulrike Fulde, Albrecht Sack, Felix Plock) [2009, Classical / Oratorium, HDTV 720p]


 

[Цитировать]

Händel-Gedächtniskonzert zum 250. Todestag von
George Frideric Händel

Händelfestspielorchester Halle • Howard Arman

-
Год выпуска: 2009
Лейбл: MDR, EuroArts Music
Жанр: Classical / Oratorium
Продолжительность: 01:42:08
Режиссер: Elisabeth Malzer
Исполнители:
Solisten
Ulrike Fulde - soprano
Albrecht Sack - tenor
Felix Plock - bass
The English Concert
Händelfestspielorchester Halle
MDR Rundfunkchor
Hallenser Madrigalisten
Händelfestspielchor
Chor der Oper Halle
Howard Arman - dirigent
Треклист:
George Frideric Handel
- "Zadok the Priest", Krönungs-Anthem für Georg II, HWV 258
- Sinfonia aus dem Oratorium "Esther", HWV 50a
- Dettingen Te Deum, HWV 283
- Sinfonia aus dem Oratorium "Saul", HWV 50
- Trauermarsch aus dem Oratorium "Saul", HWV 50
- "The ways of Zion do mourn", Trauer Anthem für Königin Caroline, HWV 264
- "Glory be to the Father" aus dem Jubilate für den Frieden von Utrecht, HWV 279
- "O sing unto the Lord a new song" Chandos-Anthem nacht Psalm 96, HWV 249b
- "The Lord shall reign for ever and ever" Zwai Chore aus dem Oratorium "Israel in Ägypten", HWV 54
Доп. информация:
Händel-Festspiele Halle 2009
Aufzeichnung aus der Marktkirche Halle, 19. April 2009

Händel-Gedachtniskonzert mdr.de
Howard Arman from Wikipedia, the free encyclopedia
Качество видео: HDTV 720p
Контейнер: TS
Видео кодек: H.264
Аудио кодек: AC3
Видео поток: Overall bit rate: 13.6 Mbps, 1280*720 (16:9), at 50.000 fps, AVC (High@L4.0) (CABAC / 4 Ref Frames)
Аудио поток: German, 192 Kbps, 48.0 KHz, 2 channels, MPEG Audio (Version 1) (Layer 2)
Аудио 2: 192 Kbps, 48.0 KHz, 2 channels, MPEG Audio (Version 1) (Layer 2)
Аудио 3: German, 448 Kbps, 48.0 KHz, 16 bits, 2 channels, AC-3
Источник: Digital Satellite > SkyStar HD2 (TechniSat) > raw data to HDD > Cypheros TS-Doctor > ts

MediaInfo

GeneralID : 8900 (0x22C4)Complete name : C:\rutracker.org_HD\MDR HD_Handel-Gedachtniskonzert (Howard Arman) 2009.tsFormat : MPEG-TSFile size : 9.68 GiBDuration : 1h 42mnOverall bit rate mode : VariableOverall bit rate : 13.6 Mbps
VideoID : 5331 (0x14D3)Menu ID : 10352 (0x2870)Format : AVCFormat/Info : Advanced Video CodecFormat profile : High@L4.0Format settings, CABAC : YesFormat settings, ReFrames : 4 framesFormat settings, GOP : M=8, N=32Codec ID : 27Duration : 1h 42mnBit rate : 12.1 MbpsWidth : 1 280 pixelsHeight : 720 pixelsDisplay aspect ratio : 16:9Frame rate : 50.000 fpsColor space : YUVChroma subsampling : 4:2:0Bit depth : 8 bitsScan type : ProgressiveBits/(Pixel*Frame) : 0.262Stream size : 8.60 GiB (89%)
Audio #1ID : 5332 (0x14D4)Menu ID : 10352 (0x2870)Format : MPEG AudioFormat version : Version 1Format profile : Layer 2Codec ID : 3Duration : 1h 42mnBit rate mode : ConstantBit rate : 192 KbpsChannel(s) : 2 channelsSampling rate : 48.0 KHzCompression mode : LossyDelay relative to video : -1s 111msStream size : 140 MiB (1%)Language : German
Audio #2ID : 5333 (0x14D5)Menu ID : 10352 (0x2870)Format : MPEG AudioFormat version : Version 1Format profile : Layer 2Codec ID : 3Duration : 1h 42mnBit rate mode : ConstantBit rate : 192 KbpsChannel(s) : 2 channelsSampling rate : 48.0 KHzCompression mode : LossyDelay relative to video : -1s 110msStream size : 140 MiB (1%)
Audio #3ID : 5336 (0x14D8)Menu ID : 10352 (0x2870)Format : AC-3Format/Info : Audio Coding 3Mode extension : CM (complete main)Format settings, Endianness : BigCodec ID : 6Duration : 1h 42mnBit rate mode : ConstantBit rate : 448 KbpsChannel(s) : 2 channelsChannel positions : Front: L RSampling rate : 48.0 KHzBit depth : 16 bitsCompression mode : LossyDelay relative to video : -1s 174msStream size : 327 MiB (3%)Language : German



Показать сообщения:    

Текущее время: 19-Янв 16:05

Часовой пояс: UTC + 3


Вы не можете начинать темы
Вы не можете отвечать на сообщения
Вы не можете редактировать свои сообщения
Вы не можете удалять свои сообщения
Вы не можете голосовать в опросах
Вы не можете прикреплять файлы к сообщениям
Вы не можете скачивать файлы