Alban Berg - Konzert fur Violine und Orchester; Anton Bruckner - Symphonie Nr. 9 (Symphonieorchester des Bayerischen Rundfunks, Mariss Jansons, Gil Shaham) [2014, Classical / Orchestral, HDTV 720p]


 

[Цитировать]

Alban Berg - Konzert für Violine und Orchester
Anton Bruckner - Symphonie Nr. 9 d-Moll

Symphonieorchester des Bayerischen Rundfunks • Mariss Jansons

-
Год выпуска: 2014
Лейбл: Bayerischer Rundfunk
Жанр: Classical / Orchestral
Продолжительность: 01:29:59
Режиссер: Michael Beyer
Исполнители:
Mariss Jansons - dirigiert
Symphonieorchester des Bayerischen Rundfunks
Solist
Gil Shaham - violine
Треклист:
Alban Berg - Konzert für Violine und Orchester "Dem Andenken eines Engels"
Anton Bruckner - Symphonie Nr. 9 d-Moll
Доп. информация:
Aus der Philharmonie im Gasteig München
Mariss Jansons dirigiert Berg und Bruckner br.de
Mariss Jansons from Wikipedia, the free encyclopedia
Марис Арвидович Янсонс материал из Википедии - свободной энциклопедии
Качество видео: HDTV 720p
Контейнер: TS
Видео кодек: H.264
Аудио кодек: AC3
Видео поток: Overall bit rate: 12.4 Mbps, 1280*720 (16:9), at 50.000 fps, AVC (High@L4.0) (CABAC / 4 Ref Frames)
Аудио поток: German, 192 Kbps, 48.0 KHz, 2 channels, MPEG Audio (Version 1) (Layer 2)
Аудио 2: 192 Kbps, 48.0 KHz, 2 channels, MPEG Audio (Version 1) (Layer 2)
Аудио 3: German, 448 Kbps, 48.0 KHz, 16 bits, 5 channels, AC-3
Источник: Digital Satellite > SkyStar HD2 (TechniSat) > raw data to HDD > Cypheros TS-Doctor > ts

MediaInfo

GeneralID : 8900 (0x22C4)Complete name : C:\rutracker.org_HD\BR HD_Alban Berg, Anton Bruckner (Mariss Jansons, Gil Shaham) 2014.tsFormat : MPEG-TSFile size : 7.81 GiBDuration : 1h 29mnOverall bit rate mode : VariableOverall bit rate : 12.4 Mbps
VideoID : 5201 (0x1451)Menu ID : 10326 (0x2856)Format : AVCFormat/Info : Advanced Video CodecFormat profile : High@L4.0Format settings, CABAC : YesFormat settings, ReFrames : 4 framesFormat settings, GOP : M=8, N=32Codec ID : 27Duration : 1h 29mnBit rate : 11.0 MbpsWidth : 1 280 pixelsHeight : 720 pixelsDisplay aspect ratio : 16:9Frame rate : 50.000 fpsColor space : YUVChroma subsampling : 4:2:0Bit depth : 8 bitsScan type : ProgressiveBits/(Pixel*Frame) : 0.238Stream size : 6.90 GiB (88%)
Audio #1ID : 5202 (0x1452)Menu ID : 10326 (0x2856)Format : MPEG AudioFormat version : Version 1Format profile : Layer 2Codec ID : 3Duration : 1h 29mnBit rate mode : ConstantBit rate : 192 KbpsChannel(s) : 2 channelsSampling rate : 48.0 KHzCompression mode : LossyDelay relative to video : -1s 92msStream size : 124 MiB (2%)Language : German
Audio #2ID : 5203 (0x1453)Menu ID : 10326 (0x2856)Format : MPEG AudioFormat version : Version 1Format profile : Layer 2Codec ID : 3Duration : 1h 29mnBit rate mode : ConstantBit rate : 192 KbpsChannel(s) : 2 channelsSampling rate : 48.0 KHzCompression mode : LossyDelay relative to video : -1s 92msStream size : 124 MiB (2%)
Audio #3ID : 5206 (0x1456)Menu ID : 10326 (0x2856)Format : AC-3Format/Info : Audio Coding 3Mode extension : CM (complete main)Format settings, Endianness : BigCodec ID : 6Duration : 1h 29mnBit rate mode : ConstantBit rate : 448 KbpsChannel(s) : 5 channelsChannel positions : Front: L C R, Side: L RSampling rate : 48.0 KHzBit depth : 16 bitsCompression mode : LossyDelay relative to video : -1s 42msStream size : 288 MiB (4%)Language : German
... info ...">

Скриншоты ... info ...


Im Januar 2014 spielte das Symphonieorchester des Bayerischen Rundfunks diese zwei Spätwerke unter der Leitung von Mariss Jansons in der Münchner Philharmonie im Gasteig. Solist war der israelische Geiger Gil Shaham, in der Spielzeit 2013/14 "Artist in Residence" beim BR-Symphonieorchester. Für ihn vermittelt Bergs Musik bei aller Trauer und Melancholie auch einen Hoffnungsschimmer. Das kraftvolle und bewegende Werk war beim Publikum ein großer Erfolg. Alban Berg aber erlebte die Uraufführung genauso wenig wie Anton Bruckner die seiner 9. Symphonie. Für Mariss Jansons ist in Bruckners Schaffen immer "der Finger Gottes", der Bezug zu etwas Überirdischem, Jenseitigen spürbar. Das BR-Symphonieorchester bringt diese Innigkeit und Bedeutung emphatisch auf den Punkt, ohne dabei in übertriebenes Pathos zu verfallen.
Derzeit ist es bei Klassikfestivals und bedeutenden Orchestern groß in Mode, jede Saison einen "Artist in Residence" zu präsentieren. Einen Solokünstler also, der während dieser Spielzeit besonders intensiv mit dem Klangkörper arbeitet. Auch das Symphonieorchester des Bayerischen Rundfunks pflegt dieses Prozedere seit einigen Jahren. Die Idee hinter diesem Konzept leuchtet ein: Es ist immer eine besondere Herausforderung für ein Orchester, einen Solisten zu begleiten. Die rhythmische Abstimmung muss präzise sein, man muss aufeinander hören, miteinander atmen. Zudem tauschen sich der Einzelne und das Kollektiv gegenseitig aus, inspirieren sich und spornen sich zu Höchstleistungen an. Das BR-Symphonieorchester ist schon immer ein gern besuchter Gastgeber für internationale Solisten der Sonderklasse.
Sabine Scharnagl ~ br.de



Показать сообщения:    

Текущее время: 11-Дек 11:05

Часовой пояс: UTC + 3


Вы не можете начинать темы
Вы не можете отвечать на сообщения
Вы не можете редактировать свои сообщения
Вы не можете удалять свои сообщения
Вы не можете голосовать в опросах
Вы не можете прикреплять файлы к сообщениям
Вы не можете скачивать файлы