Wolfgang Amadeus Mozart "Requiem" d-Moll KV 626 (Sachsischen Staatskapelle Dresden, Sir Colin Davis, Ute Selbig, Bernarda Fink, Steve Davislim, Alastair Miles) [2004, Classical / Vocal / Orchestral, HDTV 720p]


 

[Цитировать]

Wolfgang Amadeus Mozart
Requiem d-Moll KV 626 für Soli, Chor und Orchester

Sächsischen Staatskapelle Dresden • Sir Colin Davis

-
Год выпуска: 2004
Лейбл: MDR Fernsehen
Жанр: Classical / Vocal / Orchestral
Продолжительность: 00:59:47
Режиссер: Elisabeth Malzer
Исполнители:
Ute Selbig - sopran
Bernarda Fink - alt
Steve Davislim - tenor
Alastair Miles - bass
Chor der Sächsischen Staatskapelle Dresden
Sächsischen Staatskapelle Dresden
Sir Colin Davis - dirigent
Треклист:
Wolfgang Amadeus Mozart - Requiem d-Moll KV 626 für Soli, Chor und Orchester
Доп. информация:
Semperoper Dresden
Konzert zum Gedenken an die Zerstörung Dresdens am 13. Februar 1945

Sächsischen Staatskapelle Dresden Official Site
Sächsischen Staatskapelle Dresden from Wikipedia, the free encyclopedia
Sir Colin Davis from Wikipedia, the free encyclopedia
Качество видео: HDTV 720p
Контейнер: TS
Видео кодек: H.264
Аудио кодек: AC3
Видео поток: Overall bit rate: 12.0 Mbps, 1280*720 (16:9), at 50.000 fps, AVC (High@L4.0) (CABAC / 4 Ref Frames)
Аудио поток: German, 192 Kbps, 48.0 KHz, 2 channels, MPEG Audio (Version 1) (Layer 2)
Аудио 2: 192 Kbps, 48.0 KHz, 2 channels, MPEG Audio (Version 1) (Layer 2)
Аудио 3: German, 448 Kbps, 48.0 KHz, 16 bits, 2 channels, AC-3
Источник: Digital Satellite > SkyStar HD2 (TechniSat) > raw data to HDD > Cypheros TS-Doctor > ts

MediaInfo

GeneralID : 8900 (0x22C4)Complete name : C:\rutracker.org_HD\MDR HD_Wolfgang Amadeus Mozart ''Requiem'' (Sir Colin Davis) 2004.tsFormat : MPEG-TSFile size : 5.01 GiBDuration : 59mn 47sOverall bit rate mode : VariableOverall bit rate : 12.0 Mbps
VideoID : 5331 (0x14D3)Menu ID : 10352 (0x2870)Format : AVCFormat/Info : Advanced Video CodecFormat profile : High@L4.0Format settings, CABAC : YesFormat settings, ReFrames : 4 framesFormat settings, GOP : M=8, N=32Codec ID : 27Duration : 59mn 47sBit rate : 10.6 MbpsWidth : 1 280 pixelsHeight : 720 pixelsDisplay aspect ratio : 16:9Frame rate : 50.000 fpsColor space : YUVChroma subsampling : 4:2:0Bit depth : 8 bitsScan type : ProgressiveBits/(Pixel*Frame) : 0.229Stream size : 4.41 GiB (88%)
Audio #1ID : 5332 (0x14D4)Menu ID : 10352 (0x2870)Format : MPEG AudioFormat version : Version 1Format profile : Layer 2Codec ID : 3Duration : 59mn 47sBit rate mode : ConstantBit rate : 192 KbpsChannel(s) : 2 channelsSampling rate : 48.0 KHzCompression mode : LossyDelay relative to video : -1s 208msStream size : 82.1 MiB (2%)Language : German
Audio #2ID : 5333 (0x14D5)Menu ID : 10352 (0x2870)Format : MPEG AudioFormat version : Version 1Format profile : Layer 2Codec ID : 3Duration : 59mn 47sBit rate mode : ConstantBit rate : 192 KbpsChannel(s) : 2 channelsSampling rate : 48.0 KHzCompression mode : LossyDelay relative to video : -1s 208msStream size : 82.1 MiB (2%)
Audio #3ID : 5336 (0x14D8)Menu ID : 10352 (0x2870)Format : AC-3Format/Info : Audio Coding 3Mode extension : CM (complete main)Format settings, Endianness : BigCodec ID : 6Duration : 59mn 47sBit rate mode : ConstantBit rate : 448 KbpsChannel(s) : 2 channelsChannel positions : Front: L RSampling rate : 48.0 KHzBit depth : 16 bitsCompression mode : LossyDelay relative to video : -1s 207msStream size : 192 MiB (4%)Language : German



Показать сообщения:    

Текущее время: 07-Дек 19:25

Часовой пояс: UTC + 3


Вы не можете начинать темы
Вы не можете отвечать на сообщения
Вы не можете редактировать свои сообщения
Вы не можете удалять свои сообщения
Вы не можете голосовать в опросах
Вы не можете прикреплять файлы к сообщениям
Вы не можете скачивать файлы