Francis Poulenc - Gloria; Darius Millhaud - Le Boeuf sur le toit (Orchestre National de Lille, Jean-Claude Casadesus, Olga Pasichnyk) [2010, Classical / Vocal / Orchestral, HDTV 720p] Arte HD


 

[Цитировать]

Francis Poulenc - Gloria
Darius Millhaud - Le Boeuf sur le toit

Orchestre National de Lille • Jean-Claude Casadesus

-
Год выпуска: 2010
Лейбл: ARTE France, 3Cafés prod, Seppia, ON Lille
Жанр: Classical / Vocal / Orchestral
Продолжительность: 00:43:10
Режиссер: Chloé Perlemuter
Исполнители:
Orchestre National de Lille
Jean-Claude Casadesus - direction
Olga Pasichnyk / Ольга Пасічник - soprano
Chœur Régional Nord-Pas de Calais
Eric Deltour - chef de chœur
Треклист:
Francis Poulenc - Gloria, pour soprano solo, chœur mixte et orchestre (1961)
Darius Millhaud - Le Boeuf sur le toit (1919)
Доп. информация:
Enregistré à Lille, Salle du Nouveau Siècle, le 24 mars 2010
Orchestre National de Lille Official Site
Orchestre National de Lille from Wikipedia, the free encyclopedia
Jean-Claude Casadesus from Wikipedia, the free encyclopedia
Olga Pasichnyk Official Site
Olga Pasichnyk from Wikipedia, the free encyclopedia
Качество видео: HDTV 720p
Контейнер: TS
Видео кодек: H.264
Аудио кодек: AC3
Видео поток: Overall bit rate: 11.9 Mbps, 1280*720 (16:9), at 50.000 fps, AVC (High@L3.2) (CABAC / 4 Ref Frames)
Аудио поток: German, 448 Kbps, 48.0 KHz, 16 bits, 2 channels, AC-3
Источник: Digital Satellite > SkyStar HD2 (TechniSat) > raw data to HDD > Cypheros TS-Doctor > VideoReDo TVSuite v4 (cut) > ts

MediaInfo

GeneralID : 1 (0x1)Complete name : C:\rutracker.org_HD\arte HD_Francis Poulenc, Darius Milhaud (Jean-Claude Casadesus) 2010.tsFormat : MPEG-TSFile size : 3.59 GiBDuration : 43mn 10sOverall bit rate mode : VariableOverall bit rate : 11.9 Mbps
VideoID : 5111 (0x13F7)Menu ID : 1 (0x1)Format : AVCFormat/Info : Advanced Video CodecFormat profile : High@L3.2Format settings, CABAC : YesFormat settings, ReFrames : 4 framesCodec ID : 27Duration : 43mn 10sBit rate : 10.9 MbpsWidth : 1 280 pixelsHeight : 720 pixelsDisplay aspect ratio : 16:9Frame rate : 50.000 fpsColor space : YUVChroma subsampling : 4:2:0Bit depth : 8 bitsScan type : ProgressiveBits/(Pixel*Frame) : 0.236Stream size : 3.27 GiB (91%)
AudioID : 5116 (0x13FC)Menu ID : 1 (0x1)Format : AC-3Format/Info : Audio Coding 3Mode extension : CM (complete main)Format settings, Endianness : BigCodec ID : 6Duration : 43mn 10sBit rate mode : ConstantBit rate : 448 KbpsChannel(s) : 2 channelsChannel positions : Front: L RSampling rate : 48.0 KHzBit depth : 16 bitsCompression mode : LossyStream size : 138 MiB (4%)Language : German



Показать сообщения:    

Текущее время: 11-Дек 01:26

Часовой пояс: UTC + 3


Вы не можете начинать темы
Вы не можете отвечать на сообщения
Вы не можете редактировать свои сообщения
Вы не можете удалять свои сообщения
Вы не можете голосовать в опросах
Вы не можете прикреплять файлы к сообщениям
Вы не можете скачивать файлы