Зальцбургский фестиваль: Штраус, Вагнер, Брамс (Марис Янсонс, Нина Штемме) / Salzburg Festival: Strauss, Wagner, Brahm (Mariss Jansons, Nina Stemme) [2012, Classical, BDRip 720p]


 

[Цитировать]

Зальцбургский фестиваль: Штраус, Вагнер, Брамс / Salzburg Festival: Strauss, Wagner, Brahm
Год выпуска: 2012
Лейбл: Unitel Classica
Страна-производитель: США
Жанр: Classical
Продолжительность: 01:34:33
Язык: Немецкий
Режиссер: Брайан Лардж
Исполнители: Vienna Philharmonic Orchestra (Венский филармонический оркестр), дирижер - Mariss Jansons (Марис Арвидович Янсонс), Nina Stemme (Нина Штемме) (soprano)
Треклист:
Richard Strauss: Don Juan, Op. 20, TrV 156
Richard Wagner: Wesendonck Lieder (orch. Felix Mottl)
Johannes Brahms: Symphony no. 1 in C minor, Op. 68
Описание: Зальцбургский фестиваль, в значительной степени прославивший город Зальцбург, является одним из изысканных музыкальных фестивалей в мире: с самого начала этот фестиваль отличается высочайшим музыкальным уровнем, искусством международных исполнителей и удачным сочетанием традиции и новаторства. Днём рождения фестиваля стал считаться день 22 августа 1920 года, когда на Соборной площади зрители впервые увидели нравоучительную пьесу Хуго фон Хофманншталя "Имярек" ("Каждый человек") в постановке Макса Райнхарда. В 1921 году, наряду с повторным показом этой пьесы, стали также проходить первые концерты, а в 1922 году следующей музыкальной новинкой стала опера. Реконструкция школы верховой езды в музыкальный театр (1926) и строительство Театрального комплекса фестивальных залов (1925-27) позволили расширить репертуар фестиваля. Вскоре после этого Зальцбург стал местом встречи самых лучших режиссёров и дирижёров, актёров и певцов современности.

Оригинальное описание

This Blu-ray Disc will be available in July 2013. With a programme dedicated to the second half of the 19th century, Mariss Jansons, the vienna philharmonic and soprano Nina Stemme offer a "superlative concert experience" (Kurier). A brilliant reading of Richard Strauss's tone poem Don Juan opens this concert, Wagners "Wesendonck-Lieder", sung by the outstanding Swedish soprano Nina Stemme and the consiously down-to-earth-symphonic answer of Johannes Brahms Symphony No. 1 in C minor complete this extraordinary concert. "Jansons stimulates the philharmonic powers and leads them to produce an unparalleled quality - magical."
Recorded live from the Großes Festspielhaus, Salzburg Festival, August 2012.
Качество видео: BDRip
Формат/Контейнер: MKV
Видео кодек: H.264
Аудио кодек: AC3
Видео поток: H.264, 1280x720, 5963 kbps, 29.970 fps
Аудио поток: AC3, 448 kbps, 48 kHz, 2 ch

MediaInfo

Общее
Уникальный идентификатор : 241717396636683556197868336227931398005 (0xB5D913C5187F0E35835709EC19E81F75)
Полное имя : W:\Torrent_4\Salzburg Festival - Strauss, Wagner, Brahms (2012) (BDRip 720p, AC3 5.0).mkv
Формат : Matroska
Версия формата : Version 4 / Version 2
Размер файла : 4,32 Гбайт
Продолжительность : 1 ч. 34 м.
Режим общего битрейта : Переменный
Общий поток : 6541 Кбит/сек
Дата кодирования : UTC 2015-02-01 13:54:06
Программа кодирования : mkvmerge v7.3.0 ('Nouages') 64bit built on Oct 22 2014 18:53:34
Библиотека кодирования : libebml v1.3.0 + libmatroska v1.4.1
DURATION : 01:34:33.024000000
NUMBER_OF_FRAMES : 177282
NUMBER_OF_BYTES : 317689344
_STATISTICS_WRITING_APP : mkvmerge v7.3.0 ('Nouages') 64bit built on Oct 22 2014 18:53:34
_STATISTICS_WRITING_DATE_UTC : 2015-02-01 13:54:06
_STATISTICS_TAGS : BPS DURATION NUMBER_OF_FRAMES NUMBER_OF_BYTES
Видео
Идентификатор : 1
Формат : AVC
Формат/Информация : Advanced Video Codec
Профиль формата : High@L4.1
Параметр CABAC формата : Да
Параметр ReFrames формата : 3 кадра
Идентификатор кодека : V_MPEG4/ISO/AVC
Продолжительность : 1 ч. 34 м.
Вид битрейта : Переменный
Битрейт : 5963 Кбит/сек
Максимальный битрейт : 8000 Кбит/сек
Ширина : 1280 пикселей
Высота : 720 пикселей
Соотношение сторон : 16:9
Режим частоты кадров : Постоянный
Частота кадров : 29,970 кадров/сек
Стандарт вещания : NTSC
Цветовое пространство : YUV
Субдискретизация насыщенности : 4:2:0
Битовая глубина : 8 бит
Тип развёртки : Чересстрочная
Порядок развёртки : Верхнее поле первое
Бит/(Пиксели*Кадры) : 0.216
Размер потока : 3,94 Гбайт (91%)
Язык : English
Default : Да
Forced : Нет
Основные цвета : BT.709
Характеристики трансфера : BT.709
Коэффициенты матрицы : BT.709
colour_range : Limited
Аудио
Идентификатор : 2
Формат : AC-3
Формат/Информация : Audio Coding 3
Расширение режима : CM (complete main)
Параметр Endianness формата : Big
Идентификатор кодека : A_AC3
Продолжительность : 1 ч. 34 м.
Вид битрейта : Постоянный
Битрейт : 448 Кбит/сек
Каналы : 2 канала
Расположение каналов : Front: L R
Частота : 48,0 КГц
Битовая глубина : 16 бит
Метод сжатия : С потерями
Размер потока : 303 Мбайт (7%)
Default : Да
Forced : Нет

Скриншоты


Blu-ray



Показать сообщения:    

Текущее время: 08-Дек 10:59

Часовой пояс: UTC + 3


Вы не можете начинать темы
Вы не можете отвечать на сообщения
Вы не можете редактировать свои сообщения
Вы не можете удалять свои сообщения
Вы не можете голосовать в опросах
Вы не можете прикреплять файлы к сообщениям
Вы не можете скачивать файлы