F.Couperin, G.P.Telemann, J.P.Rameau, C.P.E.Bach, J-M.Leclair, J.B.Lully - L\'Europe du Nord/North Europe 1714 - 1788 (Le Concert des Nations, Jordi Savall)[2014, classical, классика средневековья, HDTVRip]


 

[Цитировать]

F.Couperin, G.P.Telemann, J.P.Rameau, C.P.E.Bach, J-M.Leclair, J.B.Lully - L'Europe du Nord/North Europe 1714 - 1788 (Le Concert des Nations, Jordi Savall)
Год выпуска: 2014
Лейбл: Mezzo LiveHD
Страна-производитель: Франция
Жанр: classical, классика средневековья
Продолжительность: 01:21:52
Режиссер/Хореограф: Jordi Savall
Исполнители: Le Concert des Nations
Треклист:
Jean Baptiste Lully
= Marche pour la Ceremonie des Turcs =
= Airs des Espagnols - Canaries =
= Chaconne des Scaramouches =
Mr.de Sainte Colombre le Pere
= Concert a deux violes egales: Tombeau les Regrets =
Francois Couperin (1683 - 1733)
= Les Concerts Royaux, 1772 =
= Prelude, Gracieusement (Second Concert) =
= Muzette, Naivement (Ttoisieme Concert) =
= Chaconne legere (Ttoisieme Concert) =
Georg Philipp Telemann (1681 - 1767)
= Pariser Quartette =
= Quardi No.12: Sixieme Quatour =
= Flute Traversiere, Violon, Basse de Viole et Basse continue =
= I.Prelude; A Discretion - Tres Vite =
= II Gai, III Vite, IV Gracieusement, V Distrait, VI Modere =
Jean-Philippe Rameau (1685 - 1764)
= Pieces de clavecin en Concert =
= Ve Concert =
= La Forqueray - L Cups - La Marais =
Carl Philipp Emanuel Bach (1714 - 1788)
= Trio Sonata (Re mineur, Wq 145) =
= Flute traversiere, Violon & basse continue =
Jean-Marie Leclair (1697 - 1764)
= Sonata VIII a Trios (Re Majeur, op.2, No8) =
= Adagio - Allegro - Sarabanda: Largo - Allegro assai =
= Violon ou Flute traversiere, Viole et Clavecin =
Описание:
Concert donne dans le carde du
9e Festival de Musique et Histoire
pour un Dialogue Interculture
a l'Abbaye de Fontfroide Narbonne 2014
Jordi Savall - direction musicale & viole de gambe
Le Concert des Nations
Жорди Савалл и оркестр "Концерт Наций": Северная Европа 1714 - 1788
Доп. информация:
классика средневековья
Качество видео: HDTVRip
Формат/Контейнер: MPEG4
Видео кодек: H.264
Аудио кодек: AAC
Видео поток: 1920x1080 (16:9), 25.00 fps, AVC, 10.9 Мбит, 0.209 bits/pixel
Аудио поток: 48.0 KHz, AAC-LC, 2 ch, stereo, 384 Kbps
Отчёт MediaInfo / BDInfo">

Скриншоты Отчёт MediaInfo / BDInfo


Полное имя : C:\Users\Валера\Videos\MY MUSIC\North Europe 1714 - 1788 (2014)\F.Couperin, G.P.Telemann, J.P.Rameau, C.P.E.Bach, J-M.Leclair, J.B.Lully - L'Europe du Nord-North Europe 2014.mp4Формат : MPEG-4Профиль формата : Base Media / Version 2Идентификатор кодека : mp42Размер файла : 6,73 ГбайтПродолжительность : 1 ч. 21 м.Режим общего битрейта : ПеременныйОбщий поток : 11,8 Мбит/секДата кодирования : UTC 2015-01-09 15:16:46Дата пометки : UTC 2015-01-09 15:16:46
ВидеоИдентификатор : 2Формат : AVCФормат/Информация : Advanced Video CodecПрофиль формата : Main@L4.0Параметр CABAC формата : ДаПараметр ReFrames формата : 2 кадраПараметр GOP формата : M=3, N=30Идентификатор кодека : avc1Идентификатор кодека/Информация : Advanced Video CodingПродолжительность : 1 ч. 21 м.Продолжительность оригинала : 1 ч. 21 м.Вид битрейта : ПеременныйБитрейт : 10,9 Мбит/секМаксимальный битрейт : 12,0 Мбит/секШирина : 1920 пикселейВысота : 1088 пикселейВысота оригинала : 1080 пикселейСоотношение сторон : 16:9Соотношение сторон в оригинале : 16:9Режим частоты кадров : ПостоянныйЧастота кадров : 25,000 кадров/секЧастота кадров в оригинале : 12,500 кадров/секЦветовое пространство : YUVСубдискретизация насыщенности : 4:2:0Битовая глубина : 8 битТип развёртки : ПрогрессивнаяБит/(Пиксели*Кадры) : 0.209Размер потока : 6,24 Гбайт (93%)Размер потока оригинала : 6,51 Гбайт (97%)Язык : EnglishДата кодирования : UTC 2015-01-09 15:16:46Дата пометки : UTC 2015-01-09 15:16:46
АудиоИдентификатор : 1Формат : AACФормат/Информация : Advanced Audio CodecПрофиль формата : LCИдентификатор кодека : 40Продолжительность : 1 ч. 21 м.Продолжительность оригинала : 1 ч. 21 м.Вид битрейта : ПостоянныйБитрейт : 384 Кбит/секНоминальный битрейт : 128 Кбит/секКаналы : 2 каналаРасположение каналов : Front: L RЧастота : 48,0 КГцМетод сжатия : С потерямиРазмер потока : 225 Мбайт (3%)Размер потока оригинала : 225 Мбайт (3%)Язык : EnglishДата кодирования : UTC 2015-01-09 15:16:46Дата пометки : UTC 2015-01-09 15:16:46mdhd_Duration : 4912206



Показать сообщения:    

Текущее время: 24-Янв 12:13

Часовой пояс: UTC + 3


Вы не можете начинать темы
Вы не можете отвечать на сообщения
Вы не можете редактировать свои сообщения
Вы не можете удалять свои сообщения
Вы не можете голосовать в опросах
Вы не можете прикреплять файлы к сообщениям
Вы не можете скачивать файлы