Rheingau Musik Festival 2014 (Felix Mendelssohn Bartholdy - Das Marchen von der schonen Melusine; Symphony No. 1; Ein Sommernachtstraum) hr-Sinfonieorchester, Paavo Jarvi, Miah Persson, Golda Schultz [2014, Classical / Vocal, HDTV 720p]


 

[Цитировать]

Rheingau Musik Festival 2014
Felix Mendelssohn Bartholdy
Das Märchen von der schönen Melusine; 1. Sinfonie c-Moll;
Ein Sommernachtstraum

hr-Sinfonieorchester • Paavo Järvi

-
Год выпуска: 2014
Лейбл: hr
Жанр: Classical / Vocal / Symphony
Продолжительность: 01:28:00
Режиссер: Nele Münchmeyer
Исполнители:
Miah Persson - sopran
Golda Schultz - sopran
Estnischer Philharmonischer Kammerchor
hr-Sinfonieorchester
Paavo Järvi - leitung
Треклист:
Felix Mendelssohn Bartholdy
- Das Märchen von der schönen Melusine
- 1. Sinfonie c-Moll
- Ein Sommernachtstraum (Auszüge aus der Bühnemusik)
Доп. информация:
Eröffnungskonzert, Basilika Kloster Eberbach, 29. Juni 2014
hr-Sinfonieorchester Official Site
hr-Sinfonieorchester from Wikipedia, the free encyclopedia
Paavo Järvi Official Site
Paavo Järvi from Wikipedia, the free encyclopedia
Пааво Ярви материал из Википедии - свободной энциклопедии
Качество видео: HDTV 720p
Контейнер: TS
Видео кодек: H.264
Аудио кодек: AC3
Видео поток: Overall bit rate: 14.2 Mbps, 1280*720 (16:9), at 50.000 fps, AVC (High@L4.0) (CABAC / 6 Ref Frames)
Аудио поток: German, 256 Kbps, 48.0 KHz, 2 channels, MPEG Audio (Version 1) (Layer 2)
Аудио 2: 192 Kbps, 48.0 KHz, 2 channels, MPEG Audio (Version 1) (Layer 2)
Аудио 3: German, 448 Kbps, 48.0 KHz, 16 bits, 2 channels, AC-3
Аудио 4: Multiple languages, 192 Kbps, 48.0 KHz, 2 channels, MPEG Audio (Version 1) (Layer 2)
Источник: Digital Satellite > SkyStar HD2 (TechniSat) > raw data to HDD > Cypheros TS-Doctor > ts

MediaInfo

GeneralID : 8900 (0x22C4)Complete name : C:\rutracker.org_HD\3sat HD_Rheingau Musik Festival, Paavo Jarvi 2014.tsFormat : MPEG-TSFile size : 8.71 GiBDuration : 1h 28mnOverall bit rate mode : VariableOverall bit rate : 14.2 Mbps
VideoID : 6510 (0x196E)Menu ID : 11150 (0x2B8E)Format : AVCFormat/Info : Advanced Video CodecFormat profile : High@L4.0Format settings, CABAC : YesFormat settings, ReFrames : 6 framesFormat settings, GOP : M=4, N=29Codec ID : 27Duration : 1h 27mnBit rate : 12.4 MbpsWidth : 1 280 pixelsHeight : 720 pixelsDisplay aspect ratio : 16:9Frame rate : 50.000 fpsColor space : YUVChroma subsampling : 4:2:0Bit depth : 8 bitsScan type : ProgressiveBits/(Pixel*Frame) : 0.268Stream size : 7.60 GiB (87%)Color primaries : BT.709Transfer characteristics : BT.709Matrix coefficients : BT.709
Audio #1ID : 6520 (0x1978)Menu ID : 11150 (0x2B8E)Format : MPEG AudioFormat version : Version 1Format profile : Layer 2Codec ID : 3Duration : 1h 28mnBit rate mode : ConstantBit rate : 256 KbpsChannel(s) : 2 channelsSampling rate : 48.0 KHzCompression mode : LossyDelay relative to video : -609msStream size : 161 MiB (2%)Language : German
Audio #2ID : 6521 (0x1979)Menu ID : 11150 (0x2B8E)Format : MPEG AudioFormat version : Version 1Format profile : Layer 2Codec ID : 3Duration : 1h 28mnBit rate mode : ConstantBit rate : 192 KbpsChannel(s) : 2 channelsSampling rate : 48.0 KHzCompression mode : LossyDelay relative to video : -609msStream size : 121 MiB (1%)
Audio #3ID : 6522 (0x197A)Menu ID : 11150 (0x2B8E)Format : AC-3Format/Info : Audio Coding 3Mode extension : CM (complete main)Format settings, Endianness : BigCodec ID : 6Duration : 1h 28mnBit rate mode : ConstantBit rate : 448 KbpsChannel(s) : 2 channelsChannel positions : Front: L RSampling rate : 48.0 KHzBit depth : 16 bitsCompression mode : LossyDelay relative to video : -613msStream size : 282 MiB (3%)Language : German
Audio #4ID : 6523 (0x197B)Menu ID : 11150 (0x2B8E)Format : MPEG AudioFormat version : Version 1Format profile : Layer 2Codec ID : 3Duration : 1h 28mnBit rate mode : ConstantBit rate : 192 KbpsChannel(s) : 2 channelsSampling rate : 48.0 KHzCompression mode : LossyDelay relative to video : -529msStream size : 121 MiB (1%)Language : Multiple languages
... info ...">

Скриншоты ... info ...


Rheingau Musik Festival 2014
Eröffnungskonzert in der Basilika des Kloster Eberbach
Das Rheingau Musik Festival wird traditionell vom hr-Sinfonieorchester in der Basilika des Kloster Eberbach eröffnet. Dirigent ist Paavo Järvi.
Für das Konzert bietet die romanische Architektur der Basilika die geeignete Kulisse für drei Werke von Felix Mendelssohn-Bartholdy. Er, der als einer der bedeutendsten Komponisten der Romantik gilt, findet im Rheingau einen kongenialen Platz. Auf dem Programm stehen: "Das Märchen von der schönen Melusine" Konzertouvertüre op.32, Sinfonie Nr.1 c-Moll op.11 und "Ein Sommernachtstraum" Bühnenmusik op.61 zu Ehren des 450. Geburtstags von William Shakespeare.
Ein Sommernachtstraum
Lysander und Demetrius sind beide in Hermia verliebt. Während Hermia sich für Lysander entschieden hat, wählt ihr Vater Demetrius als künftigen Schwiegersohn aus. Um dem vermeintlichen Tod zu entgehen, fliehen Lysander und Hermia in den Wald. Helena, die leidenschaftlich für Demetrius schwärmt, verrät ihm den Plan, um sich einzuschmeicheln. Als alle vier im Wald aufeinander treffen und sich auch noch die Elfen in die verzwickte Lage einmischen, ist das Chaos vorprogrammiert.
Mit Felix Mendelssohns "Sommernachtstraum", der wohl populärsten musikalischen Adaption der berühmten Shakespeare-Komödie, eröffnet das hr-Sinfonieorchester mit Paavo Järvi, Ehrendirigent auf Lebenszeit, das Rheingau Musik Festival 2014. Neben den beiden renommierten Sopranistinnen Miah Persson und Golda Schultz sind der Estnische Philharmonische Kammerchor in der Basilika von Kloster Eberbach zu erleben.
~ 3sat.de



Показать сообщения:    

Текущее время: 10-Дек 09:57

Часовой пояс: UTC + 3


Вы не можете начинать темы
Вы не можете отвечать на сообщения
Вы не можете редактировать свои сообщения
Вы не можете удалять свои сообщения
Вы не можете голосовать в опросах
Вы не можете прикреплять файлы к сообщениям
Вы не можете скачивать файлы