Rheingau Musik Festival 2013 (Richard Wagner - Wesendonck-Lieder; Gustav Mahler - Symphony No. 6) hr-Sinfonieorchester, Paavo Jarvi, Anne Sofie von Otter [2013, Classical / Vocal / Symphony, HDTV 720p]


 

[Цитировать]

Rheingau Musik Festival 2013
Richard Wagner - Wesendonck-Lieder; Gustav Mahler - 6. Sinfonie

hr-Sinfonieorchester • Paavo Järvi

-
Год выпуска: 2013
Лейбл: hr
Жанр: Classical / Vocal / Symphony
Продолжительность: 01:50:32
Режиссер: Michael Ciniselli
Исполнители:
Anne Sofie von Otter - mezzosopran
hr-Sinfonieorchester
Paavo Järvi - leitung
Треклист:
Richard Wagner - Wesendonck-Lieder
Gustav Mahler - 6. Sinfonie
Доп. информация:
Eröffnungskonzert, Basilika Kloster Eberbach, 30. Juni 2013
Anne Sofie von Otter Official Site
Anne Sofie von Otter from Wikipedia, the free encyclopedia
Анне Софи фон Оттер материал из Википедии - свободной энциклопедии
hr-Sinfonieorchester Official Site
hr-Sinfonieorchester from Wikipedia, the free encyclopedia
Paavo Järvi Official Site
Paavo Järvi from Wikipedia, the free encyclopedia
Пааво Ярви материал из Википедии - свободной энциклопедии
Качество видео: HDTV 720p
Контейнер: TS
Видео кодек: H.264
Аудио кодек: AC3
Видео поток: Overall bit rate: 13.5 Mbps, 1280*720 (16:9), at 50.000 fps, AVC (High@L4.0) (CABAC / 6 Ref Frames)
Аудио поток: German, 448 Kbps, 48.0 KHz, 16 bits, 2 channels, AC-3
Источник: Digital Satellite > SkyStar HD2 (TechniSat) > raw data to HDD > Cypheros TS-Doctor > ts

MediaInfo

GeneralID : 8900 (0x22C4)Complete name : C:\rutracker.org_HD\3sat HD_Rheingau Musik Festival, Paavo Jarvi 2013.tsFormat : MPEG-TSFile size : 10.4 GiBDuration : 1h 50mnOverall bit rate mode : VariableOverall bit rate : 13.5 Mbps
VideoID : 6510 (0x196E)Menu ID : 11150 (0x2B8E)Format : AVCFormat/Info : Advanced Video CodecFormat profile : High@L4.0Format settings, CABAC : YesFormat settings, ReFrames : 6 framesFormat settings, GOP : M=4, N=33Codec ID : 27Duration : 1h 50mnBit rate : 12.4 MbpsWidth : 1 280 pixelsHeight : 720 pixelsDisplay aspect ratio : 16:9Frame rate : 50.000 fpsColor space : YUVChroma subsampling : 4:2:0Bit depth : 8 bitsScan type : ProgressiveBits/(Pixel*Frame) : 0.269Stream size : 9.58 GiB (92%)Color primaries : BT.709Transfer characteristics : BT.709Matrix coefficients : BT.709
AudioID : 6522 (0x197A)Menu ID : 11150 (0x2B8E)Format : AC-3Format/Info : Audio Coding 3Mode extension : CM (complete main)Format settings, Endianness : BigCodec ID : 6Duration : 1h 50mnBit rate mode : ConstantBit rate : 448 KbpsChannel(s) : 2 channelsChannel positions : Front: L RSampling rate : 48.0 KHzBit depth : 16 bitsCompression mode : LossyDelay relative to video : -372msStream size : 354 MiB (3%)Language : German
... info ...">

Скриншоты ... info ...


Rheingau Musik Festival 2013
Das Rheingau Musik Festival wird traditionell vom hr-Sinfonieorchester und seinem Chefdirigenten eröffnet. Nach dem Jubiläumskonzert des vergangenen Jahres mit Carl Orffs "Carmina Burana" steht dazu 2013 eine Gustav Mahler-Sinfonie auf dem Programm.
Beim Eröffnungskonzert des 26. Rheingau Musik Festival kann die "tragische" Sechste mit ihrer plastischen wie erschütternden Sprache ihre ganz besondere Wirkung in der Basilika von Kloster Eberbach entfalten. Mit dem dramatischen Werk beschließen Paavo Järvi und das hr-Sinfonieorchester ihre erfolgreiche Rheingauer Mahler-Reihe. Einen weiteren Höhepunkt des Eröffnungskonzerts setzt die weltweit gefeierte schwedische Mezzosopranistin Anne Sofie von Otter, deren unnachahmliche vokale Gestaltungskraft in Richard Wagners "Wesendonck-Liedern" zu bewundern ist.
3sat zeigt eine Aufzeichnung des Eröffnungskonzerts vom "Rheingau Musik Festival" 2013.
~ 3sat.de



Показать сообщения:    

Текущее время: 10-Дек 02:16

Часовой пояс: UTC + 3


Вы не можете начинать темы
Вы не можете отвечать на сообщения
Вы не можете редактировать свои сообщения
Вы не можете удалять свои сообщения
Вы не можете голосовать в опросах
Вы не можете прикреплять файлы к сообщениям
Вы не можете скачивать файлы