Concert d'ouverture de la Philharmonie de Paris (Maurice Ravel, Gabriel Faure, Бородин, Чайковский) Orchestre de Paris, Paavo Jarvi, Helene Grimaud, Lang Lang, Sabine Devieilhe, Matthias Goerne [2015, Classical / Orchestral / Vocal, HDTV 720p]


 

[Цитировать]

Concert d'ouverture de la Philharmonie de Paris
Orchestre de Paris • Paavo Järvi

-
Год выпуска: 2015
Лейбл: Electron Libre productions, Orchestre de Paris, ARTE France
Жанр: Classical / Orchestral / Vocal
Продолжительность: 01:25:49
Язык: немецкий, французский (moderation)
Режиссер: François-René Martin
Исполнители:
Hélène Grimaud - piano
Lang Lang - piano
Sabine Devieilhe - soprano
Matthias Goerne - baryton
Orchestre de Paris
Chœur del'Orchestre de Paris
Paavo Järvi - direction musicale
Треклист:
Maurice Ravel - Concerto pour piano et orchestre en sol majeur
Gabriel Fauré - Requiem op. 48, extraits
Alexander Borodine - Danses polovtsiennes, extraits
Piotr Ilyich Tschaïkovsky - Concerto pour piano et orchestre n° 1, op. 23
Доп. информация:
Enregistré à la Philharmonie de Paris les 14 et 15 janvier 2015.
L'inauguration de la Philharmonie avec l'Orchestre de Paris et des solistes de renom.
ARTE diffuse aujourd'hui les meilleurs moments filmés les 14 et 15 janvier dernier

Gala d'Ouverture de La Philharmonien de Paris arte.tv
Orchestre de Paris Official Site
Orchestre de Paris from Wikipedia, the free encyclopedia
Paavo Järvi Official Site
Paavo Järvi from Wikipedia, the free encyclopedia
Пааво Ярви материал из Википедии - свободной энциклопедии
Качество видео: HDTV 720p
Контейнер: TS
Видео кодек: H.264
Аудио кодек: AC3
Видео поток: Overall bit rate: 7 831 Kbps, 1280*720 (16:9), at 50.000 fps, AVC (High@L4.0) (CABAC / 4 Ref Frames)
Аудио поток: German, 192 Kbps, 48.0 KHz, 2 channels, MPEG Audio (Version 1) (Layer 2)
Аудио 2: French, 192 Kbps, 48.0 KHz, 2 channels, MPEG Audio (Version 1) (Layer 2)
Аудио 3: Multiple languages, 448 Kbps, 48.0 KHz, 16 bits, 6 channels, AC-3
Аудио 4: 192 Kbps, 48.0 KHz, 2 channels, MPEG Audio (Version 1) (Layer 2)
Источник: Digital Satellite > SkyStar HD2 (TechniSat) > raw data to HDD > Cypheros TS-Doctor > ts

MediaInfo

GeneralID : 8900 (0x22C4)Complete name : C:\rutracker.org_HD\arte HD_Gala d'ouverture de la Philharmonie de Paris 2015.tsFormat : MPEG-TSFile size : 4.69 GiBDuration : 1h 25mnOverall bit rate mode : VariableOverall bit rate : 7 831 Kbps
VideoID : 5111 (0x13F7)Menu ID : 10302 (0x283E)Format : AVCFormat/Info : Advanced Video CodecFormat profile : High@L4.0Format settings, CABAC : YesFormat settings, ReFrames : 4 framesCodec ID : 27Duration : 1h 25mnBit rate : 6 410 KbpsWidth : 1 280 pixelsHeight : 720 pixelsDisplay aspect ratio : 16:9Frame rate : 50.000 fpsColor space : YUVChroma subsampling : 4:2:0Bit depth : 8 bitsScan type : ProgressiveBits/(Pixel*Frame) : 0.139Stream size : 3.84 GiB (82%)
Audio #1ID : 5112 (0x13F8)Menu ID : 10302 (0x283E)Format : MPEG AudioFormat version : Version 1Format profile : Layer 2Codec ID : 3Duration : 1h 25mnBit rate mode : ConstantBit rate : 192 KbpsChannel(s) : 2 channelsSampling rate : 48.0 KHzCompression mode : LossyDelay relative to video : -1s 181msStream size : 118 MiB (2%)Language : German
Audio #2ID : 5113 (0x13F9)Menu ID : 10302 (0x283E)Format : MPEG AudioFormat version : Version 1Format profile : Layer 2Codec ID : 3Duration : 1h 25mnBit rate mode : ConstantBit rate : 192 KbpsChannel(s) : 2 channelsSampling rate : 48.0 KHzCompression mode : LossyDelay relative to video : -1s 181msStream size : 118 MiB (2%)Language : French
Audio #3ID : 5116 (0x13FC)Menu ID : 10302 (0x283E)Format : AC-3Format/Info : Audio Coding 3Mode extension : CM (complete main)Format settings, Endianness : BigCodec ID : 6Duration : 1h 25mnBit rate mode : ConstantBit rate : 448 KbpsChannel(s) : 6 channelsChannel positions : Front: L C R, Side: L R, LFESampling rate : 48.0 KHzBit depth : 16 bitsCompression mode : LossyDelay relative to video : -1s 136msStream size : 275 MiB (6%)Language : Multiple languages
Audio #4ID : 5117 (0x13FD)Menu ID : 10302 (0x283E)Format : MPEG AudioFormat version : Version 1Format profile : Layer 2Codec ID : 3Duration : 1h 25mnBit rate mode : ConstantBit rate : 192 KbpsChannel(s) : 2 channelsSampling rate : 48.0 KHzCompression mode : LossyDelay relative to video : -1s 170msStream size : 118 MiB (2%)



Показать сообщения:    

Текущее время: 06-Дек 11:11

Часовой пояс: UTC + 3


Вы не можете начинать темы
Вы не можете отвечать на сообщения
Вы не можете редактировать свои сообщения
Вы не можете удалять свои сообщения
Вы не можете голосовать в опросах
Вы не можете прикреплять файлы к сообщениям
Вы не можете скачивать файлы