A.Ferrabosco II, A.Holborne, W.Brade, O.Gibbons, M.Locke, W.Lawes, J.Jenkins - Fantaisies Royales/Royal Fantasies (Hesperion XXI, Jordi Savall) [2014, classical, классика средневековья, HDTVRip]


 

[Цитировать]

A.Ferrabosco II, A.Holborne, W.Brade, O.Gibbons, M.Locke, W.Lawes, J.Jenkins - Fantaisies Royales/Royal Fantasies (Hesperion XXI, Jordi Savall)
Год выпуска: 2014
Лейбл: Mezzo HD
Страна-производитель: Франция
Жанр: classical, классика средневековья
Продолжительность: 01:17:16
Режиссер/Хореограф: Jordi Savall
Исполнители: Hesperion XXI
Треклист:
Alfonso Ferrabosco II (1575 - 1628)
= The Four Note Pavan a 5 =
Anthony Holborne (1545 - 1602)
= The Teares of the Muses a 5 =
William Brade (1560 - 1630)
= Mohrfields a 5 =
= Der Satyrn Tanz =
Orlando Gibbons (1583 - 1625)
= Royal fantasy XII a 3=
= In Nomine a 4 =
Matthew Locke (1630 - 1677)
Consort en Sol mineur a 4:
= Fantazie =
= Coutante =
= Ayre =
= saraband =
William Lawes (1602 - 1645)
V.Consort Set a 5 en Do Majeur;
= Fantazy =
= Paven =
= Aire =
Consort Set a 5 en Sol mineur:
= Fantazya =
= On the Playnsong =
= Aire =
John Jenkins (1592 - 1678)
= Pavan No.2 in G minor a 5 =
= In Nomine No. 1 a 6 =
= The Newark Siege a 4 =
Matthew Locke (1630 - 1677)
Consort II en re mineur/Majeur a 4"
= Fantazie in D minor =
= Courante in D Major =
= Ayre in D Major =
= Saraband in D Major =
Описание:
Concert donne dans le carde du
9e Festival de Musique et Histoire
pour un Dialogue Interculture
a l'Abbaye de Fontfroide Narbonne 2014
Jordi Savall - direction musicale & viole de gambe
Hesperion XXI
Королевские фантазии в эпоху войн трех королевств.
Доп. информация:
классика средневековья
Качество видео: HDTVRip
Формат/Контейнер: MPEG4
Видео кодек: H.264
Аудио кодек: AAC
Видео поток: 1920x1080 (16:9), 25.00 fps, AVC, 10.8 Мбит, 0.206 bits/pixel
Аудио поток: 48.0 KHz, AAC-LC, 2 ch, stereo, 128-384 Kbps VBR
Отчёт MediaInfo / BDInfo">

Скриншоты Отчёт MediaInfo / BDInfo


Полное имя : C:\Users\Валера\Videos\MY MUSIC\Fantaisies Royales -2014-\A.Ferrabosco II, A.Holborne, W.Brade, O.Gibbons, M.Locke, W.Lawes, J.Jenkins - Fantaisies Royales 2014.mp4Формат : MPEG-4Профиль формата : Base Media / Version 2Идентификатор кодека : mp42Размер файла : 6,27 ГбайтПродолжительность : 1 ч. 17 м.Режим общего битрейта : ПеременныйОбщий поток : 11,6 Мбит/секДата кодирования : UTC 2015-01-09 13:58:50Дата пометки : UTC 2015-01-09 13:58:50
ВидеоИдентификатор : 2Формат : AVCФормат/Информация : Advanced Video CodecПрофиль формата : Main@L4.0Параметр CABAC формата : ДаПараметр ReFrames формата : 2 кадраПараметр GOP формата : M=3, N=30Идентификатор кодека : avc1Идентификатор кодека/Информация : Advanced Video CodingПродолжительность : 1 ч. 17 м.Продолжительность оригинала : 1 ч. 17 м.Вид битрейта : ПеременныйБитрейт : 10,8 Мбит/секМаксимальный битрейт : 12,0 Мбит/секШирина : 1920 пикселейВысота : 1088 пикселейВысота оригинала : 1080 пикселейСоотношение сторон : 16:9Соотношение сторон в оригинале : 16:9Режим частоты кадров : ПостоянныйЧастота кадров : 25,000 кадров/секЧастота кадров в оригинале : 12,500 кадров/секЦветовое пространство : YUVСубдискретизация насыщенности : 4:2:0Битовая глубина : 8 битТип развёртки : ПрогрессивнаяБит/(Пиксели*Кадры) : 0.206Размер потока : 5,81 Гбайт (93%)Размер потока оригинала : 6,06 Гбайт (97%)Язык : EnglishДата кодирования : UTC 2015-01-09 13:58:50Дата пометки : UTC 2015-01-09 13:58:50
АудиоИдентификатор : 1Формат : AACФормат/Информация : Advanced Audio CodecПрофиль формата : LCИдентификатор кодека : 40Продолжительность : 1 ч. 17 м.Продолжительность оригинала : 1 ч. 17 м.Вид битрейта : ПостоянныйБитрейт : 384 Кбит/секНоминальный битрейт : 128 Кбит/секКаналы : 2 каналаРасположение каналов : Front: L RЧастота : 48,0 КГцМетод сжатия : С потерямиРазмер потока : 212 Мбайт (3%)Размер потока оригинала : 212 Мбайт (3%)Язык : EnglishДата кодирования : UTC 2015-01-09 13:58:50Дата пометки : UTC 2015-01-09 13:58:50mdhd_Duration : 4636601



Показать сообщения:    

Текущее время: 03-Дек 07:36

Часовой пояс: UTC + 3


Вы не можете начинать темы
Вы не можете отвечать на сообщения
Вы не можете редактировать свои сообщения
Вы не можете удалять свои сообщения
Вы не можете голосовать в опросах
Вы не можете прикреплять файлы к сообщениям
Вы не можете скачивать файлы