EuroArts. Listen with your eyes [2007, Классика, DVD5]


 

[Цитировать]

EuroArts. Listen with your eyes
Год выпуска: 2007
Лейбл: Союз
Страна-производитель: Германия
Жанр: Классика
Продолжительность: 01.57.33
Язык: English, German
Перевод: Не требуется
Субтитры: Нет
Треклист:
1. Mozart: The Great Mass
2. Claudio Abbado-Alfred Brendel
3. Verdi: Un ballo in maschera
4. Herbert von Karajan
5. Wiener Sangerknaben
6. Karl Bohm-Wilhelm Backhaus
7. Wagner: Tannhauser
8. Chailly Conducts Mendelson
9. Placido Domingo/Agnes Baltsa
10. Beethoven: Ode to Freedom
11. Mozart: Violin Sonatas
12. Wagner: Lohengrin
13. Europa – Konzert from Prague
14. Bruckner: Symphomy No.9
15. Rossini: L’occasione fa il ladro
16. Yehudi Menuhin
17. Shumann: Piano Concerto
18. Beethoven” Missa solemnis

Подробная информация об исполнителях.

1. Wolfgang Amadeus Mozart: Jesu Christe – Cum Sancto Spiritu from “The Great Mass” – A Ballet by Uwe Scholz. Witch Leipzig Ballet. Gewandhausorchester Leipzig.
2. Ludwig van Beethoven: Largo from Piano Concerto №.3. With Alfred Brendel. Lucerne Festival Orchestra. Claudio Abbado. Coupled with Anton Bruckner: Symphony №.7.
3. Giuseppe Verdi: “Ogni cupa si doni al diletto” from “Un ballo in maschera” with Massimiliano Pisapla. Chiara Taigi. Franco Vassallo. Anna Maria Chiuri. Gewandhausorchester Leipzig. Riccardo Chailly.
4. Robert Schumann: Ziemlich langsam – Lebhalf from Symphony №.4 from Hetbert von Karajan in Rehearsal and Performance.
5. Wolfgang Amadeus Mozart: Ave verum corpus from Wiener Sangerknaben – A Mozart Celebration from Stephansdom.
6. Ludwig van Beethoven: Rondo from Piano Concerto №.4 With Wilhelm Backhaus. Wiener Symphoniken. Karl Bohm. Coupled with Johannes Brahms: Sumphony No.2
7. Richard Wagner: “ den Gott der Liebe sollst du preisen” from “Tannhauser” From the Bayreuther Festspiele. With Richard Versale. Cheryl Studer. Ruthild Engert Ely. Hans Sotin. Wolfgang Brendel. Siegfried Vogel. Giuseppe Sinopoli.
8. Felix Mendelssohn: “Ich harrete des Hern” from Symphony №.2 “Lobgesang” from Riccardo Chailly Conducts Mendelson. With Anne Schwanewilms. Petra Maria Schnitzer. Peter Seiffert. GewndhausChor. Chor der Oper Leipzig. Gewandhausorchestener Leipzig.
9. Giuseppe Verdi:”Gia I sacerdoti adunansi” from “Aida” from Gala Concert “50 th Anniversary of the Reopening of the Wiener Staatsoper” With Adnes Baktsa. Placido Domingo and Edita Gruberova. Tomas Hampson. Bryn Terel. Daniele Gatti. Zubin Mehta. Seiji Ozawa. Christian Thielemann. Franz Welser-Most and many More
10. Ludwig van Beethoven: “Ode to Freedom” from Symphony №9. Leonard Bernstein’s historical concert in celebration of the fakk of the Berlin Wall in 1989.
11. Wolfgang Amadeus Mozart: Violin Sonata in A major. From Mozart: Famous Sonatas. With Gil Shaham. Orli Shaham.
12. Richard Wagner: “Durch Gottes Sieg ist jetzt dein Leben mein” from “Lohengrin” From the Bayreuther Festspiele. With Petet Hofmann. Karan Armstrong. Elizabeth Connell. Leif Roar. Siegfried Vogel. Berd Weikl. Woldemar Nelsson.
13. Wolfgang Amadeus Mozart: Finale from Symphony №.35. “Haffner” From Europa-Konzert from Prague. With Radek Baborak. Berliner Philharmoniker. Daniel Baenboim.
14. Anton Brucker: Scherzo from Symphony №.9 With Wiener Phiharmoniker. Leonard Bernsteil
15. Gioachino Rossini: “Orsu spiegatevi” From “L’occasione fa il Ladro” with Stuart Kale. Susan Patterson. Robert Gambill. Natale de Carolis. Monica Bacelli. Alessandro Corbelli. Radio-Sinfonieorchester Stuttgart. Gianluigi Gelmetti.
16. Johannes Brahms: Hungarian Dance №.5 From Yehudi Menuhin Plays Mendelssohn & Encores
17. Robert Schumann: Intermezzo from Piano Concerto. With Martha Argerich. Gewandhausorchester Leipzig. Riccardo Chailly. Couoled with Shumann: Symphony №.4 etc.
18. Ludwig van Beethoven: Gloria (Excerpt) from Missa solemnis. Concert for the reopening of the Dresden Frauenkirche. Withc Camila Nylund. Brigit Remmert. Christian Elsner. Rene Pape. Staatsopernchor & Staatskapelle Dresden. Fabio Luisi.
Описание: В сборник вошли произведения Моцарта, Бетховена, Верди, Вагнера, Шумана, Брамса и других композиторов в исполнении выдающихся артистов и музыкальных коллективов; отрывки из опер, танцевальные постановки и оркестровые сочинения, фортепианные концерты, скрипичные пьесы...
Авторы и исполнители:
Композиторы:
Бетховен Людвиг ван ~ Брамс Иоганнес ~ Брель Жак ~ Брукнер Антон ~ Гайдн Йозеф ~ Легран Мишель ~ Малер Густав ~ Мендельсон-Бартольди Якоб Людвиг Феликс ~ Морриконе Эннио ~ Моцарт Вольфганг Амадей (Иоганн Хризостом Вольфганг Теофил) ~ Россини Джоаккино Антонио ~ Сен-Санс Камилль ~ Шуман Роберт ~ Верди Джузеппе Фортунино Франческо ~ Вагнер Вильгельм Рихард
Дирижеры:
Аббадо Клаудио ~ Бернстайн Леонард ~ Шайи Риккардо ~ Караян Герберт фон
Исполнители:
Аргерих Марта, фортепиано ~ Доминго Пласидо, тенор ~ Хофманн Питер, тенор ~ Кюблер Давид, тенор ~ Менухин Иегуди, скрипка ~ Ростропович Мстислав, виолончель ~ Шваневильмс Анна, сопрано ~ Шахам Гил, скрипка, ансамбль Лейпцигский оркестр Гевандхауза (Гевандхауз-Оркестр) ~ Orchester der Oper Leipzig ~ Оркестр Люцернского фестиваля ~ Венский филармонический оркестр.
Качество видео: DVD5
Формат/Контейнер: DVDVideo
Видео кодек: MPEG2
Аудио кодек: PCM
Видео поток: 720x480 (4:3),29,970 кадров/сек, ~ 8000 Кбит/сек avg, 0.484 bit/pixe
Аудио поток: 48,0 КГц, PCM, 2 ch stereo 16 bit, 1536 Кбит/сек
Семпл: http://multi-up.com/1026796

MediaInfo

Общее
Полное имя : D:\TEMP TORRENT\EuroArts. Listen with your eyes\VIDEO_TS\VIDEO_TS.BUP
Формат : DVD Video
Профиль формата : Menu
Размер файла : 12,0 Кбайт
Режим общего битрейта : Переменный
Видео
Идентификатор : 224 (0xE0)
Формат : MPEG Video
Версия формата : Version 2
Вид битрейта : Переменный
Ширина : 720 пикселей
Высота : 480 пикселей
Соотношение сторон : 4:3
Частота кадров : 29,970 кадров/сек
Стандарт вещания : NTSC
Метод сжатия : С потерями
Аудио
Формат : PCM
Каналы : 2 канала
Частота : 48,0 КГц
Текст
Формат : RLE
Формат/Информация : Run-length encoding
Битовая глубина : 2 бит
Общее
Полное имя : D:\TEMP TORRENT\EuroArts. Listen with your eyes\VIDEO_TS\VIDEO_TS.IFO
Формат : DVD Video
Профиль формата : Menu
Размер файла : 12,0 Кбайт
Режим общего битрейта : Переменный
Видео
Идентификатор : 224 (0xE0)
Формат : MPEG Video
Версия формата : Version 2
Вид битрейта : Переменный
Ширина : 720 пикселей
Высота : 480 пикселей
Соотношение сторон : 4:3
Частота кадров : 29,970 кадров/сек
Стандарт вещания : NTSC
Метод сжатия : С потерями
Аудио
Формат : PCM
Каналы : 2 канала
Частота : 48,0 КГц
Текст
Формат : RLE
Формат/Информация : Run-length encoding
Битовая глубина : 2 бит
Общее
Полное имя : D:\TEMP TORRENT\EuroArts. Listen with your eyes\VIDEO_TS\VIDEO_TS.VOB
Формат : MPEG-PS
Размер файла : 42,0 Кбайт
Продолжительность : 158 мс.
Общий поток : 2178 Кбит/сек
Видео
Идентификатор : 224 (0xE0)
Формат : MPEG Video
Версия формата : Version 2
Профиль формата : Main@Main
Параметр BVOP формата : Нет
Параметр матрицы формата : Выборочная
Продолжительность : 33 мс.
Максимальный битрейт : 8000 Кбит/сек
Ширина : 720 пикселей
Высота : 480 пикселей
Соотношение сторон : 4:3
Частота кадров : 29,970 кадров/сек
Стандарт вещания : NTSC
Цветовое пространство : YUV
Субдискретизация насыщенности : 4:2:0
Битовая глубина : 8 бит
Тип развёртки : Прогрессивная
Порядок развёртки : Нижнее поле первое
Метод сжатия : С потерями
Временной код первого кадра : 00:00:00:00
Оригинал временного кода : Group of pictures header
Основные цвета : BT.601 NTSC
Характеристики трансфера : BT.601
Коэффициенты матрицы : BT.601
Аудио
Идентификатор : 189 (0xBD)-160 (0xA0)
Формат : PCM
Параметр Endianness формата : Big
Параметр Sign формата : Signed
Режим смешивания : DVD-Video
Продолжительность : 158 мс.
Вид битрейта : Постоянный
Битрейт : 1536 Кбит/сек
Каналы : 2 канала
Частота : 48,0 КГц
Битовая глубина : 16 бит
Размер потока : 29,6 Кбайт (71%)
Меню
Общее
Полное имя : D:\TEMP TORRENT\EuroArts. Listen with your eyes\VIDEO_TS\VTS_01_0.BUP
Формат : DVD Video
Профиль формата : Program
Размер файла : 80,0 Кбайт
Продолжительность : 1 ч. 57 м.
Режим общего битрейта : Переменный
Общий поток : 93 бит/сек
Видео
Идентификатор : 224 (0xE0)
Формат : MPEG Video
Версия формата : Version 2
Продолжительность : 1 ч. 57 м.
Вид битрейта : Переменный
Ширина : 720 пикселей
Высота : 480 пикселей
Соотношение сторон : 4:3
Частота кадров : 29,970 кадров/сек
Стандарт вещания : NTSC
Метод сжатия : С потерями
Аудио
Идентификатор : 0 (0x0)
Формат : PCM
Продолжительность : 1 ч. 57 м.
Каналы : 2 канала
Частота : 48,0 КГц
Язык : English
Меню #1
Продолжительность : 23 с.
00:00:00.000 : Chapter 1
List (Audio) : 0
Меню #2
Продолжительность : 1 ч. 57 м.
00:00:00.000 : Chapter 1
00:04:33.866 : Chapter 2
00:13:59.866 : Chapter 3
00:16:11.799 : Chapter 4
00:24:54.132 : Chapter 5
00:28:26.632 : Chapter 6
00:39:05.798 : Chapter 7
00:43:09.298 : Chapter 8
00:48:08.598 : Chapter 9
00:54:01.364 : Chapter 10
01:13:45.430 : Chapter 11
01:19:28.730 : Chapter 12
01:23:45.496 : Chapter 13
01:27:41.462 : Chapter 14
01:40:00.095 : Chapter 15
01:43:01.961 : Chapter 16
01:45:01.927 : Chapter 17
01:50:21.060 : Chapter 18
List (Audio) : 0
Общее
Полное имя : D:\TEMP TORRENT\EuroArts. Listen with your eyes\VIDEO_TS\VTS_01_0.IFO
Формат : DVD Video
Профиль формата : Program
Размер файла : 80,0 Кбайт
Продолжительность : 1 ч. 57 м.
Режим общего битрейта : Переменный
Общий поток : 93 бит/сек
Видео
Идентификатор : 224 (0xE0)
Формат : MPEG Video
Версия формата : Version 2
Продолжительность : 1 ч. 57 м.
Вид битрейта : Переменный
Ширина : 720 пикселей
Высота : 480 пикселей
Соотношение сторон : 4:3
Частота кадров : 29,970 кадров/сек
Стандарт вещания : NTSC
Метод сжатия : С потерями
Аудио
Идентификатор : 0 (0x0)
Формат : PCM
Продолжительность : 1 ч. 57 м.
Каналы : 2 канала
Частота : 48,0 КГц
Язык : English
Меню #1
Продолжительность : 23 с.
00:00:00.000 : Chapter 1
List (Audio) : 0
Меню #2
Продолжительность : 1 ч. 57 м.
00:00:00.000 : Chapter 1
00:04:33.866 : Chapter 2
00:13:59.866 : Chapter 3
00:16:11.799 : Chapter 4
00:24:54.132 : Chapter 5
00:28:26.632 : Chapter 6
00:39:05.798 : Chapter 7
00:43:09.298 : Chapter 8
00:48:08.598 : Chapter 9
00:54:01.364 : Chapter 10
01:13:45.430 : Chapter 11
01:19:28.730 : Chapter 12
01:23:45.496 : Chapter 13
01:27:41.462 : Chapter 14
01:40:00.095 : Chapter 15
01:43:01.961 : Chapter 16
01:45:01.927 : Chapter 17
01:50:21.060 : Chapter 18
List (Audio) : 0
Общее
Полное имя : D:\TEMP TORRENT\EuroArts. Listen with your eyes\VIDEO_TS\VTS_01_0.VOB
Формат : MPEG-PS
Размер файла : 235 Мбайт
Продолжительность : 2 м. 13 с.
Режим общего битрейта : Переменный
Общий поток : 14,7 Мбит/сек
Видео
Идентификатор : 224 (0xE0)
Формат : MPEG Video
Версия формата : Version 2
Профиль формата : Main@Main
Параметр BVOP формата : Да
Параметр матрицы формата : Выборочная
Параметр GOP формата : M=3, N=15
Продолжительность : 2 м. 13 с.
Вид битрейта : Переменный
Битрейт : 12,9 Мбит/сек
Максимальный битрейт : 8000 Кбит/сек
Ширина : 720 пикселей
Высота : 480 пикселей
Соотношение сторон : 4:3
Частота кадров : 29,970 кадров/сек
Стандарт вещания : NTSC
Цветовое пространство : YUV
Субдискретизация насыщенности : 4:2:0
Битовая глубина : 8 бит
Тип развёртки : Прогрессивная
Метод сжатия : С потерями
Бит/(Пиксели*Кадры) : 1.243
Временной код первого кадра : 00:00:00:00
Оригинал временного кода : Group of pictures header
Размер потока : 205 Мбайт (88%)
Основные цвета : BT.601 NTSC
Характеристики трансфера : BT.601
Коэффициенты матрицы : BT.601
Gop_OpenClosed_FirstFrame : Closed
Аудио
Идентификатор : 189 (0xBD)-160 (0xA0)
Формат : PCM
Параметр Endianness формата : Big
Параметр Sign формата : Signed
Режим смешивания : DVD-Video
Продолжительность : 2 м. 13 с.
Вид битрейта : Постоянный
Битрейт : 1536 Кбит/сек
Каналы : 2 канала
Частота : 48,0 КГц
Битовая глубина : 16 бит
Размер потока : 24,5 Мбайт (10%)
Текст
Идентификатор : 189 (0xBD)-32 (0x20)
Формат : RLE
Формат/Информация : Run-length encoding
Режим смешивания : DVD-Video
Меню
Общее
Полное имя : D:\TEMP TORRENT\EuroArts. Listen with your eyes\VIDEO_TS\VTS_01_1.VOB
Формат : MPEG-PS
Размер файла : 900 Мбайт
Продолжительность : 25 м.
Режим общего битрейта : Переменный
Общий поток : 4970 Кбит/сек
Видео
Идентификатор : 224 (0xE0)
Формат : MPEG Video
Версия формата : Version 2
Профиль формата : Main@Main
Параметр BVOP формата : Да
Параметр матрицы формата : Выборочная
Параметр GOP формата : M=3, N=15
Продолжительность : 25 м.
Вид битрейта : Переменный
Битрейт : 3336 Кбит/сек
Максимальный битрейт : 8000 Кбит/сек
Ширина : 720 пикселей
Высота : 480 пикселей
Соотношение сторон : 4:3
Частота кадров : 29,970 кадров/сек
Стандарт вещания : NTSC
Цветовое пространство : YUV
Субдискретизация насыщенности : 4:2:0
Битовая глубина : 8 бит
Тип развёртки : Прогрессивная
Метод сжатия : С потерями
Бит/(Пиксели*Кадры) : 0.322
Временной код первого кадра : 00:00:00:00
Оригинал временного кода : Group of pictures header
Размер потока : 604 Мбайт (67%)
Основные цвета : BT.601 NTSC
Характеристики трансфера : BT.601
Коэффициенты матрицы : BT.601
Gop_OpenClosed_FirstFrame : Closed
Аудио
Идентификатор : 189 (0xBD)-160 (0xA0)
Формат : PCM
Параметр Endianness формата : Big
Параметр Sign формата : Signed
Режим смешивания : DVD-Video
Продолжительность : 25 м.
Вид битрейта : Постоянный
Битрейт : 1536 Кбит/сек
Каналы : 2 канала
Частота : 48,0 КГц
Битовая глубина : 16 бит
Размер потока : 278 Мбайт (31%)
Меню
Общее
Полное имя : D:\TEMP TORRENT\EuroArts. Listen with your eyes\VIDEO_TS\VTS_01_2.VOB
Формат : MPEG-PS
Размер файла : 900 Мбайт
Продолжительность : 25 м.
Режим общего битрейта : Переменный
Общий поток : 4903 Кбит/сек
Видео
Идентификатор : 224 (0xE0)
Формат : MPEG Video
Версия формата : Version 2
Профиль формата : Main@Main
Параметр BVOP формата : Да
Параметр матрицы формата : Выборочная
Параметр GOP формата : M=3, N=15
Продолжительность : 25 м.
Вид битрейта : Переменный
Битрейт : 3269 Кбит/сек
Максимальный битрейт : 8000 Кбит/сек
Ширина : 720 пикселей
Высота : 480 пикселей
Соотношение сторон : 4:3
Частота кадров : 29,970 кадров/сек
Стандарт вещания : NTSC
Цветовое пространство : YUV
Субдискретизация насыщенности : 4:2:0
Битовая глубина : 8 бит
Тип развёртки : Прогрессивная
Метод сжатия : С потерями
Бит/(Пиксели*Кадры) : 0.316
Временной код первого кадра : 00:25:17:19
Оригинал временного кода : Group of pictures header
Размер потока : 600 Мбайт (67%)
Основные цвета : BT.601 NTSC
Характеристики трансфера : BT.601
Коэффициенты матрицы : BT.601
Аудио
Идентификатор : 189 (0xBD)-160 (0xA0)
Формат : PCM
Параметр Endianness формата : Big
Параметр Sign формата : Signed
Режим смешивания : DVD-Video
Продолжительность : 25 м.
Вид битрейта : Постоянный
Битрейт : 1536 Кбит/сек
Каналы : 2 канала
Частота : 48,0 КГц
Битовая глубина : 16 бит
Задержка видео : -677 мс.
Размер потока : 282 Мбайт (31%)
Меню
Общее
Полное имя : D:\TEMP TORRENT\EuroArts. Listen with your eyes\VIDEO_TS\VTS_01_3.VOB
Формат : MPEG-PS
Размер файла : 900 Мбайт
Продолжительность : 25 м.
Режим общего битрейта : Переменный
Общий поток : 4903 Кбит/сек
Видео
Идентификатор : 224 (0xE0)
Формат : MPEG Video
Версия формата : Version 2
Профиль формата : Main@Main
Параметр BVOP формата : Да
Параметр матрицы формата : Выборочная
Параметр GOP формата : Variable
Продолжительность : 25 м.
Вид битрейта : Переменный
Битрейт : 3269 Кбит/сек
Максимальный битрейт : 8000 Кбит/сек
Ширина : 720 пикселей
Высота : 480 пикселей
Соотношение сторон : 4:3
Частота кадров : 29,970 кадров/сек
Стандарт вещания : NTSC
Цветовое пространство : YUV
Субдискретизация насыщенности : 4:2:0
Битовая глубина : 8 бит
Тип развёртки : Прогрессивная
Метод сжатия : С потерями
Бит/(Пиксели*Кадры) : 0.316
Временной код первого кадра : 00:50:56:03
Оригинал временного кода : Group of pictures header
Размер потока : 600 Мбайт (67%)
Основные цвета : BT.601 NTSC
Характеристики трансфера : BT.601
Коэффициенты матрицы : BT.601
Аудио
Идентификатор : 189 (0xBD)-160 (0xA0)
Формат : PCM
Параметр Endianness формата : Big
Параметр Sign формата : Signed
Режим смешивания : DVD-Video
Продолжительность : 25 м.
Вид битрейта : Постоянный
Битрейт : 1536 Кбит/сек
Каналы : 2 канала
Частота : 48,0 КГц
Битовая глубина : 16 бит
Задержка видео : -682 мс.
Размер потока : 282 Мбайт (31%)
Меню
Общее
Полное имя : D:\TEMP TORRENT\EuroArts. Listen with your eyes\VIDEO_TS\VTS_01_4.VOB
Формат : MPEG-PS
Размер файла : 900 Мбайт
Продолжительность : 25 м.
Режим общего битрейта : Переменный
Общий поток : 4903 Кбит/сек
Видео
Идентификатор : 224 (0xE0)
Формат : MPEG Video
Версия формата : Version 2
Профиль формата : Main@Main
Параметр BVOP формата : Да
Параметр матрицы формата : Выборочная
Параметр GOP формата : Variable
Продолжительность : 25 м.
Вид битрейта : Переменный
Битрейт : 3270 Кбит/сек
Максимальный битрейт : 8000 Кбит/сек
Ширина : 720 пикселей
Высота : 480 пикселей
Соотношение сторон : 4:3
Частота кадров : 29,970 кадров/сек
Стандарт вещания : NTSC
Цветовое пространство : YUV
Субдискретизация насыщенности : 4:2:0
Битовая глубина : 8 бит
Тип развёртки : Прогрессивная
Метод сжатия : С потерями
Бит/(Пиксели*Кадры) : 0.316
Временной код первого кадра : 01:16:34:17
Оригинал временного кода : Group of pictures header
Размер потока : 600 Мбайт (67%)
Основные цвета : BT.601 NTSC
Характеристики трансфера : BT.601
Коэффициенты матрицы : BT.601
Аудио
Идентификатор : 189 (0xBD)-160 (0xA0)
Формат : PCM
Параметр Endianness формата : Big
Параметр Sign формата : Signed
Режим смешивания : DVD-Video
Продолжительность : 25 м.
Вид битрейта : Постоянный
Битрейт : 1536 Кбит/сек
Каналы : 2 канала
Частота : 48,0 КГц
Битовая глубина : 16 бит
Задержка видео : -676 мс.
Размер потока : 282 Мбайт (31%)
Меню
Общее
Полное имя : D:\TEMP TORRENT\EuroArts. Listen with your eyes\VIDEO_TS\VTS_01_5.VOB
Формат : MPEG-PS
Размер файла : 527 Мбайт
Продолжительность : 15 м.
Режим общего битрейта : Переменный
Общий поток : 4838 Кбит/сек
Видео
Идентификатор : 224 (0xE0)
Формат : MPEG Video
Версия формата : Version 2
Профиль формата : Main@Main
Параметр BVOP формата : Да
Параметр матрицы формата : Выборочная
Параметр GOP формата : Variable
Продолжительность : 15 м.
Вид битрейта : Переменный
Битрейт : 3205 Кбит/сек
Максимальный битрейт : 8000 Кбит/сек
Ширина : 720 пикселей
Высота : 480 пикселей
Соотношение сторон : 4:3
Частота кадров : 29,970 кадров/сек
Стандарт вещания : NTSC
Цветовое пространство : YUV
Субдискретизация насыщенности : 4:2:0
Битовая глубина : 8 бит
Тип развёртки : Прогрессивная
Метод сжатия : С потерями
Бит/(Пиксели*Кадры) : 0.309
Временной код первого кадра : 01:42:13:03
Оригинал временного кода : Group of pictures header
Размер потока : 349 Мбайт (66%)
Основные цвета : BT.601 NTSC
Характеристики трансфера : BT.601
Коэффициенты матрицы : BT.601
Аудио
Идентификатор : 189 (0xBD)-160 (0xA0)
Формат : PCM
Параметр Endianness формата : Big
Параметр Sign формата : Signed
Режим смешивания : DVD-Video
Продолжительность : 15 м.
Вид битрейта : Постоянный
Битрейт : 1536 Кбит/сек
Каналы : 2 канала
Частота : 48,0 КГц
Битовая глубина : 16 бит
Задержка видео : -706 мс.
Размер потока : 167 Мбайт (32%)
Меню

Скриншоты меню

На раздаче после 19:00



Показать сообщения:    

Текущее время: 05-Дек 13:31

Часовой пояс: UTC + 3


Вы не можете начинать темы
Вы не можете отвечать на сообщения
Вы не можете редактировать свои сообщения
Вы не можете удалять свои сообщения
Вы не можете голосовать в опросах
Вы не можете прикреплять файлы к сообщениям
Вы не можете скачивать файлы