Antonin Dvorak, Symphonie Nr. 9 (Symphonieorchester des Bayerischen Rundfunks, Mariss Jansons) [2015, Classical / Orchestral, HDTV 720p]


 

[Цитировать]

Antonin Dvorak
Symphonie Nr. 9 e-moll opus 95 "Aus der Neuen Welt"

Symphonieorchester des Bayerischen Rundfunks • Mariss Jansons

-
Год выпуска: 2015
Лейбл: Bayerischer Rundfunk
Жанр: Classical / Orchestral
Продолжительность: 00:44:50
Режиссер: Michael Beyer
Исполнители:
Symphonieorchester des Bayerischen Rundfunks
Mariss Jansons - dirigiert
Треклист:
Antonin Dvorak - Symphonie Nr. 9 e-Moll opus 95 "Aus der Neuen Welt"
- Adagio - Allegro Molto
- Largo
- Scherzo. Molto vivace
- Allegro con fuoco
Доп. информация:
Aus dem Herkulessaal der Resident München
Mariss Jansons dirigiert br.de
Antonín Dvořák from Wikipedia, the free encyclopedia
Antonín Dvořák материал из Википедии - свободной энциклопедии
Mariss Jansons from Wikipedia, the free encyclopedia
Марис Арвидович Янсонс материал из Википедии - свободной энциклопедии
Качество видео: HDTV 720p
Контейнер: TS
Видео кодек: H.264
Аудио кодек: AC3
Видео поток: Overall bit rate: 13.1 Mbps, 1280*720 (16:9), at 50.000 fps, AVC (High@L4.0) (CABAC / 4 Ref Frames)
Аудио поток: German, 192 Kbps, 48.0 KHz, 2 channels, MPEG Audio (Version 1) (Layer 2)
Аудио 2: 192 Kbps, 48.0 KHz, 2 channels, MPEG Audio (Version 1) (Layer 2)
Аудио 3: German, 448 Kbps, 48.0 KHz, 16 bits, 5 channels, AC-3
Источник: Digital Satellite > SkyStar HD2 (TechniSat) > raw data to HDD > Cypheros TS-Doctor > ts

MediaInfo

GeneralID : 8900 (0x22C4)Complete name : C:\rutracker.org_HD\BR HD_Antonin Dvorak, Symphonie Nr. 9 (Mariss Jansons) 2015.tsFormat : MPEG-TSFile size : 4.12 GiBDuration : 44mn 50sOverall bit rate mode : VariableOverall bit rate : 13.1 Mbps
VideoID : 5201 (0x1451)Menu ID : 10326 (0x2856)Format : AVCFormat/Info : Advanced Video CodecFormat profile : High@L4.0Format settings, CABAC : YesFormat settings, ReFrames : 4 framesFormat settings, GOP : M=8, N=32Codec ID : 27Duration : 44mn 50sBit rate : 11.7 MbpsWidth : 1 280 pixelsHeight : 720 pixelsDisplay aspect ratio : 16:9Frame rate : 50.000 fpsColor space : YUVChroma subsampling : 4:2:0Bit depth : 8 bitsScan type : ProgressiveBits/(Pixel*Frame) : 0.253Stream size : 3.65 GiB (89%)
Audio #1ID : 5202 (0x1452)Menu ID : 10326 (0x2856)Format : MPEG AudioFormat version : Version 1Format profile : Layer 2Codec ID : 3Duration : 44mn 50sBit rate mode : ConstantBit rate : 192 KbpsChannel(s) : 2 channelsSampling rate : 48.0 KHzCompression mode : LossyDelay relative to video : -1s 148msStream size : 61.6 MiB (1%)Language : German
Audio #2ID : 5203 (0x1453)Menu ID : 10326 (0x2856)Format : MPEG AudioFormat version : Version 1Format profile : Layer 2Codec ID : 3Duration : 44mn 50sBit rate mode : ConstantBit rate : 192 KbpsChannel(s) : 2 channelsSampling rate : 48.0 KHzCompression mode : LossyDelay relative to video : -1s 148msStream size : 61.6 MiB (1%)
Audio #3ID : 5206 (0x1456)Menu ID : 10326 (0x2856)Format : AC-3Format/Info : Audio Coding 3Mode extension : CM (complete main)Format settings, Endianness : BigCodec ID : 6Duration : 44mn 50sBit rate mode : ConstantBit rate : 448 KbpsChannel(s) : 5 channelsChannel positions : Front: L C R, Side: L RSampling rate : 48.0 KHzBit depth : 16 bitsCompression mode : LossyDelay relative to video : -1s 130msStream size : 144 MiB (3%)Language : German



Показать сообщения:    

Текущее время: 08-Дек 12:51

Часовой пояс: UTC + 3


Вы не можете начинать темы
Вы не можете отвечать на сообщения
Вы не можете редактировать свои сообщения
Вы не можете удалять свои сообщения
Вы не можете голосовать в опросах
Вы не можете прикреплять файлы к сообщениям
Вы не можете скачивать файлы