J.S.Bach - Les Gouts Reunis, Concerti et Suites pour Orchestre (Le Concert des Nations, Jordi Savall) [2013, classical, HDTVRip]


 

[Цитировать]

J.S.Bach - Les Gouts Reunis, Concerti et Suites pour Orchestre (Le Concert des Nations, Jordi Savall)
Год выпуска: 2013
Лейбл: Mezzo HD
Страна-производитель: Франция
Жанр: classical
Продолжительность: 01:26:53
Перевод: не требуется
Субтитры: нет
Режиссер/Хореограф: Jordi Savall
Исполнители: Le Concert des Nations
Треклист:
Overture / Suite Nr.2 en Si mineur BWV 1067
=1= Overture
=2= Rondeau
=3= Sarabande
=4= Bourree I & II
=5= Polonaise
=6= Menuett
=7= Badinerie

Concerto pour clavecin en Re mineur BWV 1052
=1= Allegro
=2= Adagio
=3= Allegro

Concerto pour deux violons & cordes en Re mineur BWV 1043
=1= Vivace
=2= Largo ma non tanto
=3= Allegro

Overture / Suite Nr.1 en Do majeur BWV 1066
=1= Overture
=2= Courante
=3= Gavotte I & II
=4= Forlane
=5= Menuett I & II
=6= Bourree I & II
=7= Passepied I & II

Описание:
Concert donne dans le carde du
8e Festival de Musique et Histoire
pour un Dialogue Interculture
a l'Abbaye de Fontfroide Narbonne 2013

Музыка Баха в Фонфруаде: Сюиты и концерты в исполнении Le Concert des Nations, дирижер: Жорди Савалл
Качество видео: HDTVRip
Формат/Контейнер: MPEG4
Видео кодек: H.264
Аудио кодек: AAC
Видео поток: 1920x1080 (16:9), 25.00 fps, AVC, 10.7 Мбит, 0.205 bits/pixel
Аудио поток: 48.0 KHz, AAC-LC, 2 ch, stereo, 128-384 Kbps VBR
Отчёт MediaInfo / BDInfo">

Скриншоты Отчёт MediaInfo / BDInfo


Полное имя : C:\Users\Валера\Videos\MY MUSIC\J.S.Bach - LGRCeSpO 2013\J.S.Bach - Les Gouts Reunis, Concerti et Suites pour Orchestre 2013.mp4Формат : MPEG-4Профиль формата : Base Media / Version 2Идентификатор кодека : mp42Размер файла : 7,02 ГбайтПродолжительность : 1 ч. 26 м.Режим общего битрейта : ПеременныйОбщий поток : 11,6 Мбит/секДата кодирования : UTC 2015-01-09 12:29:25Дата пометки : UTC 2015-01-09 12:29:25
ВидеоИдентификатор : 2Формат : AVCФормат/Информация : Advanced Video CodecПрофиль формата : Main@L4.0Параметр CABAC формата : ДаПараметр ReFrames формата : 2 кадраПараметр GOP формата : M=3, N=30Идентификатор кодека : avc1Идентификатор кодека/Информация : Advanced Video CodingПродолжительность : 1 ч. 26 м.Продолжительность оригинала : 1 ч. 26 м.Вид битрейта : ПеременныйБитрейт : 10,7 Мбит/секМаксимальный битрейт : 12,0 Мбит/секШирина : 1920 пикселейВысота : 1088 пикселейВысота оригинала : 1080 пикселейСоотношение сторон : 16:9Соотношение сторон в оригинале : 16:9Режим частоты кадров : ПостоянныйЧастота кадров : 25,000 кадров/секЧастота кадров в оригинале : 12,500 кадров/секЦветовое пространство : YUVСубдискретизация насыщенности : 4:2:0Битовая глубина : 8 битТип развёртки : ПрогрессивнаяБит/(Пиксели*Кадры) : 0.205Размер потока : 6,51 Гбайт (93%)Размер потока оригинала : 6,79 Гбайт (97%)Язык : EnglishДата кодирования : UTC 2015-01-09 12:29:25Дата пометки : UTC 2015-01-09 12:29:25
АудиоИдентификатор : 1Формат : AACФормат/Информация : Advanced Audio CodecПрофиль формата : LCИдентификатор кодека : 40Продолжительность : 1 ч. 26 м.Продолжительность оригинала : 1 ч. 26 м.Вид битрейта : ПостоянныйБитрейт : 384 Кбит/секНоминальный битрейт : 128 Кбит/секКаналы : 2 каналаРасположение каналов : Front: L RЧастота : 48,0 КГцМетод сжатия : С потерямиРазмер потока : 239 Мбайт (3%)Размер потока оригинала : 239 Мбайт (3%)Язык : EnglishДата кодирования : UTC 2015-01-09 12:29:25Дата пометки : UTC 2015-01-09 12:29:25mdhd_Duration : 5213411



Показать сообщения:    

Текущее время: 10-Дек 11:58

Часовой пояс: UTC + 3


Вы не можете начинать темы
Вы не можете отвечать на сообщения
Вы не можете редактировать свои сообщения
Вы не можете удалять свои сообщения
Вы не можете голосовать в опросах
Вы не можете прикреплять файлы к сообщениям
Вы не можете скачивать файлы