Дмитрий Хворостовский и Друзья - Детям (Бородин, Verdi, Рубинштейн) [07.01.2015, Classical | Opera Arias, HDTV 720p]


 

[Цитировать]

Дмитрий Хворостовский и Друзья - Детям- Год выпуска: 07.01.2015
Страна-производитель: Россия
Телеканал: Россия HD
Жанр: Classical | Opera Arias
Продолжительность: 0:57:44
Аккомпанемент: Хор и Оркестр "Новой Оперы" под руководством Константина Орбеляна
Исполнители: Дмитрий Хворостовский, Кристина Мхитарян, Анна Аглатова, Александр Цымбалюк, Павел Валужин, Гульназ Шиганова-Описание: Благотворительный концерт одного из самых популярных оперных певцов мира Дмитрия Хворостовского и его друзей, звезд мировой оперной сцены, прошел в Государственном Кремлевском дворце. Собранные средства организаторы направили на лечение детей с тяжелыми заболеваниями, а также в поддержку детей-сирот и многодетных семей.-Автор рипа: lrn
Сэмпл: Яндекс.Диск-Качество видео: HDTV 720p
Контейнер: MKV
Видео поток: 1280x720 (16:9), 25,000 fps, H264, ~4000 kbps avg, ~0.174 bit/pixel
Аудио поток: 48 kHz, AC3 Dolby Digital, 2/0 (L,R), ~192.00 kbps avg-

Треклист

1. Дмитрий Хворостовский - "Ария Князя Игоря" из Оперы "Князь Игорь", А. Бородин
2. Дмитрий Хворостовский и Кристина Мхитарян - Дуэт и Оперы "Риголетто", Дж. Верди
3. Гульназ Шиганова - "Ночь", А. Рубинштейн
4. Дмитрий Хворостовский - "Московские Окна", Т. Хренников и М. Матусовский
5. Дмитрий Хворостовский - "Благодарю Тебя", А. Бабаджанян и Р. Рождественнский
6. Дмитрий Хворостовский - "O Sole Mio", Э. ди Капуа и Дж. Каппуро
7. Дмитрий Хворостовский, Кристина Мхитарян, Анна Аглатова, Александр Цымбалюк, Павел Валужин - "Подмосковные Вечера", В. Соловьёв-Седой и М. Матусовский

-

MediaInfo

General
Unique ID : 205568953065254963910478643101344429297 (0x9AA723E668023276A6108B93BD2B74F1)
Complete name : E:\uTorrent.Temp\Temp\Dmitrij.Hvorostovskij.i.druzja.detjam.HDTV.720p.x264-lrn.mkv
Format : Matroska
Format version : Version 4 / Version 2
File size : 1.69 GiB
Duration : 57mn 44s
Overall bit rate : 4 194 Kbps
Movie name : Exclusive for rutracker.org by lrn © 2015
Encoded date : UTC 2010-02-22 21:41:31
Writing application : mkvmerge v5.9.0 ('On The Loose') built on Dec 9 2012 15:37:01
Writing library : libebml v1.3.0 + libmatroska v1.4.0
Video
ID : 1
Format : AVC
Format/Info : Advanced Video Codec
Format profile : High@L4.1
Format settings, CABAC : Yes
Format settings, ReFrames : 6 frames
Codec ID : V_MPEG4/ISO/AVC
Duration : 57mn 44s
Bit rate : 4 000 Kbps
Width : 1 280 pixels
Height : 720 pixels
Display aspect ratio : 16:9
Frame rate mode : Constant
Frame rate : 25.000 fps
Color space : YUV
Chroma subsampling : 4:2:0
Bit depth : 8 bits
Scan type : Progressive
Bits/(Pixel*Frame) : 0.174
Stream size : 1.58 GiB (93%)
Writing library : x264 core 130 r2273 b3065e6
Encoding settings : cabac=1 / ref=6 / deblock=1:0:0 / analyse=0x3:0x133 / me=umh / subme=9 / psy=1 / psy_rd=1.00:0.00 / mixed_ref=1 / me_range=24 / chroma_me=1 / trellis=2 / 8x8dct=1 / cqm=0 / deadzone=21,11 / fast_pskip=1 / chroma_qp_offset=-2 / threads=12 / lookahead_threads=1 / sliced_threads=0 / nr=0 / decimate=1 / interlaced=0 / bluray_compat=0 / constrained_intra=0 / bframes=6 / b_pyramid=2 / b_adapt=2 / b_bias=0 / direct=3 / weightb=1 / open_gop=0 / weightp=2 / keyint=250 / keyint_min=25 / scenecut=40 / intra_refresh=0 / rc_lookahead=50 / rc=2pass / mbtree=1 / bitrate=4000 / ratetol=1.0 / qcomp=0.60 / qpmin=0 / qpmax=69 / qpstep=4 / cplxblur=20.0 / qblur=0.5 / ip_ratio=1.40 / aq=1:1.00
Default : Yes
Forced : No
Audio
ID : 2
Format : AC-3
Format/Info : Audio Coding 3
Mode extension : CM (complete main)
Format settings, Endianness : Big
Codec ID : A_AC3
Duration : 57mn 44s
Bit rate mode : Constant
Bit rate : 192 Kbps
Channel(s) : 2 channels
Channel positions : Front: L R
Sampling rate : 48.0 KHz
Bit depth : 16 bits
Compression mode : Lossy
Stream size : 79.3 MiB (5%)
Language : Russian
Default : Yes
Forced : No

-

Скриншоты

-



Показать сообщения:    

Текущее время: 08-Дек 12:57

Часовой пояс: UTC + 3


Вы не можете начинать темы
Вы не можете отвечать на сообщения
Вы не можете редактировать свои сообщения
Вы не можете удалять свои сообщения
Вы не можете голосовать в опросах
Вы не можете прикреплять файлы к сообщениям
Вы не можете скачивать файлы