Geistliche Lieder mit Elina Garanca (Adam, Gounod, Gomez, Handel, Bizet, Mascagni, Ruperto Chapi y Lorente) (State Choir "Latvija", Deutsche Radio Philharmonie, Karel Mark Chichon) [2013, Opera / Vocal / Orchestral, HDTV 720p]


 

[Цитировать]

Geistliche Lieder mit Elīna Garanča
State Choir "Latvija" • Deutsche Radio Philharmonie • Karel Mark Chichon

-
Год выпуска: 2013
Лейбл: SR
Жанр: Opera / Vocal / Classical / Orchestral
Продолжительность: 00:43:02
Режиссер: Torben Schmidt Jacobsen
Исполнители:
Elīna Garanča - mezzo-soprano
Karel Mark Chichon - dirigent
State Choir "Latvija"
Deutsche Radio Philharmonie
Треклист:
Adolphe Adam - Cantique de Noël
Charles Gounod - O Divine Redeemer!
William Gomez - Ave Maria
Georg Friedrich Händel - Halleluja - Aus "Der Messias"
Georges Bizet - Agnus Dei
Pietro Mascagni
- Ave Maria
- Regina coeli - Aus "Cavalleria Rusticana"
Ruperto Chapí y Lorente - Carcelaras - Aus "Las Hijas del Zebedeo"
Доп. информация:
Geistliche Lieder mit Elīna Garanča arte.tv
Elīna Garanča Official Site
Elīna Garanča from Wikipedia, the free encyclopedia
Karel Mark Chichon Official Site
Karel Mark Chichon from Wikipedia, the free encyclopedia
State Choir "Latvija" erpmusic.com
Deutsche Radio Philharmonie Official Site
Deutsche Radio Philharmonie from Wikipedia, the free encyclopedia
... фрагмент концерта можно посмотреть: Cantique de Noël ...
Качество видео: HDTV 720p
Контейнер: TS
Видео кодек: H.264
Аудио кодек: AC3
Видео поток: Overall bit rate: 13.4 Mbps, 1280*720 (16:9), at 50.000 fps, AVC (High@L4.0) (CABAC / 4 Ref Frames)
Аудио поток: German, 192 Kbps, 48.0 KHz, 2 channels, MPEG Audio (Version 1) (Layer 2)
Аудио 2: French, 192 Kbps, 48.0 KHz, 2 channels, MPEG Audio (Version 1) (Layer 2)
Аудио 3: Multiple languages, 448 Kbps, 48.0 KHz, 16 bits, 2 channels, AC-3
Аудио 4: 192 Kbps, 48.0 KHz, 2 channels, MPEG Audio (Version 1) (Layer 2)
Источник: Digital Satellite > SkyStar HD2 (TechniSat) > raw data to HDD > Cypheros TS-Doctor > ts

MediaInfo

GeneralID : 1 (0x1)Complete name : C:\rutracker.org_HD\arte HD_Geistliche Lieder mit Elina Garanca (2013).tsFormat : MPEG-TSFile size : 4.04 GiBDuration : 43mn 2sOverall bit rate mode : VariableOverall bit rate : 13.4 Mbps
VideoID : 5111 (0x13F7)Menu ID : 1 (0x1)Format : AVCFormat/Info : Advanced Video CodecFormat profile : High@L4.0Format settings, CABAC : YesFormat settings, ReFrames : 4 framesCodec ID : 27Duration : 43mn 2sBit rate : 11.7 MbpsWidth : 1 280 pixelsHeight : 720 pixelsDisplay aspect ratio : 16:9Frame rate : 50.000 fpsColor space : YUVChroma subsampling : 4:2:0Bit depth : 8 bitsScan type : ProgressiveBits/(Pixel*Frame) : 0.255Stream size : 3.53 GiB (87%)
Audio #1ID : 5112 (0x13F8)Menu ID : 1 (0x1)Format : MPEG AudioFormat version : Version 1Format profile : Layer 2Codec ID : 3Duration : 43mn 2sBit rate mode : ConstantBit rate : 192 KbpsChannel(s) : 2 channelsSampling rate : 48.0 KHzCompression mode : LossyStream size : 59.1 MiB (1%)Language : German
Audio #2ID : 5113 (0x13F9)Menu ID : 1 (0x1)Format : MPEG AudioFormat version : Version 1Format profile : Layer 2Codec ID : 3Duration : 43mn 2sBit rate mode : ConstantBit rate : 192 KbpsChannel(s) : 2 channelsSampling rate : 48.0 KHzCompression mode : LossyStream size : 59.1 MiB (1%)Language : French
Audio #3ID : 5116 (0x13FC)Menu ID : 1 (0x1)Format : AC-3Format/Info : Audio Coding 3Mode extension : CM (complete main)Format settings, Endianness : BigCodec ID : 6Duration : 43mn 2sBit rate mode : ConstantBit rate : 448 KbpsChannel(s) : 2 channelsChannel positions : Front: L RSampling rate : 48.0 KHzBit depth : 16 bitsCompression mode : LossyStream size : 138 MiB (3%)Language : Multiple languages
Audio #4ID : 5117 (0x13FD)Menu ID : 1 (0x1)Format : MPEG AudioFormat version : Version 1Format profile : Layer 2Codec ID : 3Duration : 43mn 2sBit rate mode : ConstantBit rate : 192 KbpsChannel(s) : 2 channelsSampling rate : 48.0 KHzCompression mode : LossyStream size : 59.1 MiB (1%)
... info ...">

Скриншоты ... info ...


Ob lyrisch und getragen, kraftvoll oder in perlenden Koloraturen - ihre einzigartige Stimme wird von Presse und Publikum gleichermaßen gefeiert: Die lettische Mezzosopranistin Elina Garanca zählt längst zu den ganz großen Stars der Klassikszene. Für ARTE singt sie im Weihnachtsprogramm geistliche Lieder in der Begleitung der Deutschen Radio Philharmonie Saarbrücken Kaiserslautern.
Ihre sensationelle Stimme macht Elina Garanca zu einem der ganz großen Stars der Musikwelt. Nach ihrem Debüt an der Met titelte die „New York Sun“: „Elina Garanca besitzt einfach alles: Musikalität, Technik, Stimme, Selbstvertrauen, Intelligenz, Wandlungsfähigkeit und das Aussehen eines Filmstars.“ Bei ARTE war sie zuletzt diesen Sommer in „Carmen“ aus der Arena di Verona zu erleben.
Ihr neues Album, das die Künstlerin im Herbst dieses Jahres unter dem Titel „Meditation“ mit der Deutschen Radio Philharmonie in Saarbrücken eingespielt hat, beweist dies einmal mehr. Es zeigt sie von einer bislang eher unbekannten Seite, denn Elina Garanca widmet sich Stücken aus vorwiegend sakralem Repertoire.
Zusammen mit der Deutschen Radio Philharmonie und deren Chefdirigenten Karel Mark Chichon interpretiert sie diese geistlichen Lieder, unter anderem das „Agnus Dei“ von Georges Bizet, „O Divine Redeemer“ von Charles Gounod und das „Ave Maria“ von Pietro Mascagni auf ihre unnachahmliche Art mit glockenklar schwebender Stimme.
~ arte.tv/guide/de



Показать сообщения:    

Текущее время: 05-Дек 19:34

Часовой пояс: UTC + 3


Вы не можете начинать темы
Вы не можете отвечать на сообщения
Вы не можете редактировать свои сообщения
Вы не можете удалять свои сообщения
Вы не можете голосовать в опросах
Вы не можете прикреплять файлы к сообщениям
Вы не можете скачивать файлы