Horowitz in Moscow / Горовиц в Москве (Scarlatti, Mozart, Рахманинов, Скрябин, Schubert, Liszt, Chopin, Schumann, Moszkowski) [1986, Classical / Piano / Documentary, HDTV 720p]


 

[Цитировать]

Horowitz in Moscow / Горовиц в Москве
Большой зал Московской консерватории 20 апреля 1986 года

-
Год выпуска: 1986
Лейбл: Camvideo, inc.
Жанр: Classical / Piano / Documentary
Продолжительность: 01:47:01
Язык: английский
Перевод: немецкий
Режиссер: Brian Large
Исполнители:
Владимир Горовиц - фортепиано
Треклист:
- Domenico Scarlatti - Piano Sonata in B Minor, K 87 (L. 33)
- Domenico Scarlatti - Piano Sonata in E Major. K 380 (L. 23)
- Domenico Scarlatti - Piano Sonata in E Major, K 135 (L. 224)
- Wolfgang Amadeus Mozart - Piano Sonata No. 10 in C Major, K. 330
- Sergei Rachmaninov - Prelude in G Major, Op. 32, No. 5
- Sergei Rachmaninov - Prelude in G-sharp Minor, Op. 32, No. 12
- Alexander Scriabin - Etude in C-sharp Minor, Op. 2, No. 1
- Alexander Scriabin - Etude in D-sharp Minor, Op. 8, No. 12
- Franz Schubert - Impromptu in B-flat Major, Op. 142, No. 3 (D. 935)
- Schubert/Liszt - Valse caprice No. 6 from Soirées de Vienna after Franz Schubert
- Liszt - "Sonetto 104 del Petrarca" from Années de pèlerinage, deuxième annee "Italic"
- Frederic Chopin - Mazurka in C-sharp Minor, Op. 30, No. 4
- Frederic Chopin - Mazurka in F Minor, Op. 7, No. 3
- Frederic Chopin - Polonaise in A-flat Major, Op. 53
- Robert Schumann - "Träumerei" (Dreaming) from Kinderszenen, Op. 15
- Moszkowski - "Etincelles" (Sparks) from Morceaux caractéristiques, Op. 36, No. 6
- Sergei Rachmaninov - Polka de W.R., Op. 303
Доп. информация:
... запись концерт Владимира Горовица состоялась в Большом зале Московской консерватории 20 апреля 1986 года
... данный материал не является одним сплошным концертом, здесь есть небольшие документальные сюжеты -
... организация гастрольной поездки, встреча Артиста, прогулка по Москве, восспоминания Владимира Горовица
о своей жизни (английский язык, закадровый перевод - немецкий язык)
Vladimir Horowitz in Moskau 3sat.de
Vladimir Horowitz from Wikipedia, the free encyclopedia
Владимир Горовиц материал из Википедии - свободной энциклопедии
Качество видео: HDTV 720p
Контейнер: TS
Видео кодек: H.264
Аудио кодек: AC3
Видео поток: 10.7 Mbps, 1280*720 (16:9), at 50.000 fps, AVC (High@L4.0) (CABAC / 6 Ref Frames)
Аудио поток: 192 Kbps, 48.0 KHz, 2 channels, MPEG Audio (Version 1) (Layer 2)
Аудио 2: 192 Kbps, 48.0 KHz, 2 channels, MPEG Audio (Version 1) (Layer 2)
Аудио 3: German, 448 Kbps, 48.0 KHz, 16 bits, 2 channels, AC-3
Аудио 4: Multiple languages, 192 Kbps, 48.0 KHz, 2 channels, MPEG Audio (Version 1) (Layer 2)
Источник: Digital Satellite > SkyStar HD2 (TechniSat) > raw data to HDD > Cypheros TS-Doctor > ts

MediaInfo

GeneralID : 8900 (0x22C4)Complete name : C:\rutracker.org_HD\3sat HD_Horowitz in Moskau (1986).tsFormat : MPEG-TSFile size : 9.24 GiBDuration : 1h 47mnOverall bit rate mode : VariableOverall bit rate : 12.4 Mbps
VideoID : 6510 (0x196E)Menu ID : 11150 (0x2B8E)Format : AVCFormat/Info : Advanced Video CodecFormat profile : High@L4.0Format settings, CABAC : YesFormat settings, ReFrames : 6 framesCodec ID : 27Duration : 1h 47mnBit rate : 10.7 MbpsWidth : 1 280 pixelsHeight : 720 pixelsDisplay aspect ratio : 16:9Frame rate : 50.000 fpsColor space : YUVChroma subsampling : 4:2:0Bit depth : 8 bitsScan type : ProgressiveBits/(Pixel*Frame) : 0.231Stream size : 7.96 GiB (86%)Color primaries : BT.709Transfer characteristics : BT.709Matrix coefficients : BT.709
Audio #1ID : 6520 (0x1978)Menu ID : 11150 (0x2B8E)Format : MPEG AudioFormat version : Version 1Format profile : Layer 2Codec ID : 3Duration : 1h 47mnBit rate mode : ConstantBit rate : 256 KbpsChannel(s) : 2 channelsSampling rate : 48.0 KHzCompression mode : LossyDelay relative to video : -471msStream size : 196 MiB (2%)Language : German
Audio #2ID : 6521 (0x1979)Menu ID : 11150 (0x2B8E)Format : MPEG AudioFormat version : Version 1Format profile : Layer 2Codec ID : 3Duration : 1h 47mnBit rate mode : ConstantBit rate : 192 KbpsChannel(s) : 2 channelsSampling rate : 48.0 KHzCompression mode : LossyDelay relative to video : -471msStream size : 147 MiB (2%)
Audio #3ID : 6522 (0x197A)Menu ID : 11150 (0x2B8E)Format : AC-3Format/Info : Audio Coding 3Mode extension : CM (complete main)Format settings, Endianness : BigCodec ID : 6Duration : 1h 47mnBit rate mode : ConstantBit rate : 448 KbpsChannel(s) : 2 channelsChannel positions : Front: L RSampling rate : 48.0 KHzBit depth : 16 bitsCompression mode : LossyDelay relative to video : -555msStream size : 343 MiB (4%)Language : German
Audio #4ID : 6523 (0x197B)Menu ID : 11150 (0x2B8E)Format : MPEG AudioFormat version : Version 1Format profile : Layer 2Codec ID : 3Duration : 1h 47mnBit rate mode : ConstantBit rate : 192 KbpsChannel(s) : 2 channelsSampling rate : 48.0 KHzCompression mode : LossyDelay relative to video : -511msStream size : 147 MiB (2%)Language : Multiple languages



Показать сообщения:    

Текущее время: 06-Дек 17:11

Часовой пояс: UTC + 3


Вы не можете начинать темы
Вы не можете отвечать на сообщения
Вы не можете редактировать свои сообщения
Вы не можете удалять свои сообщения
Вы не можете голосовать в опросах
Вы не можете прикреплять файлы к сообщениям
Вы не можете скачивать файлы