Gustav Mahler - Das Lied von der Erde (Orchestre de la Suisse Romande, Neeme Jarvi, Thomas Hampson, Paul Groves) [2014, Classical / Vocal / Symphony, HDTV 720p]


 

[Цитировать]

Gustav Mahler
Das Lied von der Erde
L'Orchestre de la Suisse Romande • Neeme Järvi

-
Год выпуска: 2014
Лейбл: RTS, 3sat
Жанр: Classical / Vocal / Symphony
Продолжительность: 01:07:26
Режиссер: Jason Starr
Исполнители:
L'Orchestre de la Suisse Romande
Neeme Järvi - dirigent
Thomas Hampson - bariton
Paul Groves - tenor
Треклист:
Gustav Mahler - Das Lied von der Erde
Доп. информация:
Aus der Victoria Hall, Genf
Gustav Mahler - Das Lied von der Erde 3sat.de
Orchestre de la Suisse Romande Official Site
Orchestre de la Suisse Romande from Wikipedia, the free encyclopedia
Orchestre de la Suisse Romande материал из Википедии - свободной энциклопедии
Neeme Järvi Official Site
Neeme Järvi from Wikipedia, the free encyclopedia
Thomas Hampson Official Site
Thomas Hampson from Wikipedia, the free encyclopedia
Paul Groves from Wikipedia, the free encyclopedia
Качество видео: HDTV 720p
Контейнер: TS
Видео кодек: H.264
Аудио кодек: AC3
Видео поток: 12.0 Mbps, 1280*720 (16:9), at 50.000 fps, AVC (High@L4.0) (CABAC / 6 Ref Frames)
Аудио поток: German, 256 Kbps, 48.0 KHz, 2 channels, MPEG Audio (Version 1) (Layer 2)
Аудио 2: 192 Kbps, 48.0 KHz, 2 channels, MPEG Audio (Version 1) (Layer 2)
Аудио 3: German, 448 Kbps, 48.0 KHz, 16 bits, 2 channels, AC-3
Аудио 4: Multiple languages, 192 Kbps, 48.0 KHz, 2 channels, MPEG Audio (Version 1) (Layer 2)
Источник: Digital Satellite > SkyStar HD2 (TechniSat) > raw data to HDD > Cypheros TS-Doctor > ts

MediaInfo

GeneralID : 8900 (0x22C4)Complete name : C:\rutracker.org_HD\3sat HD_Gustav Mahler - Das Lied von der Erde.tsFormat : MPEG-TSFile size : 6.47 GiBDuration : 1h 7mnOverall bit rate mode : VariableOverall bit rate : 13.7 Mbps
VideoID : 6510 (0x196E)Menu ID : 11150 (0x2B8E)Format : AVCFormat/Info : Advanced Video CodecFormat profile : High@L4.0Format settings, CABAC : YesFormat settings, ReFrames : 6 framesFormat settings, GOP : M=4, N=33Codec ID : 27Duration : 1h 7mnBit rate : 12.0 MbpsWidth : 1 280 pixelsHeight : 720 pixelsDisplay aspect ratio : 16:9Frame rate : 50.000 fpsColor space : YUVChroma subsampling : 4:2:0Bit depth : 8 bitsScan type : ProgressiveBits/(Pixel*Frame) : 0.260Stream size : 5.63 GiB (87%)Color primaries : BT.709Transfer characteristics : BT.709Matrix coefficients : BT.709
Audio #1ID : 6520 (0x1978)Menu ID : 11150 (0x2B8E)Format : MPEG AudioFormat version : Version 1Format profile : Layer 2Codec ID : 3Duration : 1h 7mnBit rate mode : ConstantBit rate : 256 KbpsChannel(s) : 2 channelsSampling rate : 48.0 KHzCompression mode : LossyDelay relative to video : -509msStream size : 123 MiB (2%)Language : German
Audio #2ID : 6521 (0x1979)Menu ID : 11150 (0x2B8E)Format : MPEG AudioFormat version : Version 1Format profile : Layer 2Codec ID : 3Duration : 1h 7mnBit rate mode : ConstantBit rate : 192 KbpsChannel(s) : 2 channelsSampling rate : 48.0 KHzCompression mode : LossyDelay relative to video : -509msStream size : 92.6 MiB (1%)
Audio #3ID : 6522 (0x197A)Menu ID : 11150 (0x2B8E)Format : AC-3Format/Info : Audio Coding 3Mode extension : CM (complete main)Format settings, Endianness : BigCodec ID : 6Duration : 1h 7mnBit rate mode : ConstantBit rate : 448 KbpsChannel(s) : 2 channelsChannel positions : Front: L RSampling rate : 48.0 KHzBit depth : 16 bitsCompression mode : LossyDelay relative to video : -393msStream size : 216 MiB (3%)Language : German
Audio #4ID : 6523 (0x197B)Menu ID : 11150 (0x2B8E)Format : MPEG AudioFormat version : Version 1Format profile : Layer 2Codec ID : 3Duration : 1h 7mnBit rate mode : ConstantBit rate : 192 KbpsChannel(s) : 2 channelsSampling rate : 48.0 KHzCompression mode : LossyDelay relative to video : -429msStream size : 92.6 MiB (1%)Language : Multiple languages



Показать сообщения:    

Текущее время: 11-Дек 11:04

Часовой пояс: UTC + 3


Вы не можете начинать темы
Вы не можете отвечать на сообщения
Вы не можете редактировать свои сообщения
Вы не можете удалять свои сообщения
Вы не можете голосовать в опросах
Вы не можете прикреплять файлы к сообщениям
Вы не можете скачивать файлы