Christmas in Vienna (Wade, Humperdinck, Lecuona, Reidinger, Bach, Mozart, Ramirez ...) (Ursula Langmayr, Angelika Kirchschlager, Joel Prieto, Luca Pisaroni, ORF Radio-Symphonieorchester Wien, Erwin Ortner) [2013, Classical / Choral, HDTV 720p]


 

[Цитировать]

Christmas in Vienna
ORF Radio-Symphonieorchester Wien • Erwin Ortner

-
Год выпуска: 2013
Лейбл: ORF, arte
Жанр: Classical / Choral
Продолжительность: 01:28:04
Режиссер: Felix Breisach
Исполнители:
Solisten:
Ursula Langmayr - soprano
Angelika Kirchschlager - mezzo-soprano
Joel Prieto - tenor
Luca Pisaroni - bass-baritone
Wiener Sängerknaben
Wiener Singakademie
ORF Radio-Symphonieorchester Wien
Erwin Ortner - musikalische leitung
Треклист:
- John Francis Wade - Adeste Fideles
- Engelbert Humperdinck - Das Licht der Welt aus "Weihnachtslieder Nr. 4"
- Amaury Veray Torregrosa:
- Villancico Yaucano
- Joy To The World
- Alfonso Marie De Liguori - Tu scendi dale stele
- Ernesto Lecuona - Malagueña
- Adolfe Adam - Cantique Noël
- Engelbert Humperdinck - Weihnachten aus "Weihnachtslieder Nr. 1"
- Anton Reidinger - Es wird scho glei dumpa
- Johann Sebastian Bach - Bereite dich, Zion aus dem "Weihnachtsoratorium"
- Johann Sebastian Bach - Großer Herr und starker König aus dem "Weihnachtsoratorium"
- Wolfgang Amadeus Mozart - Et incarnates est aus "Große Messe in c-moll"
- Ariel Ramírez - Gloria aus "Misa Criolla"
- Georges Bizet:
- Farandole aus "L' Arlésienne Suite Nr. 2"
- Oh Du Fröhliche
- Frank Loesser - Baby, It's Cold Outside
- Sammy Cahn - Let It Snow
- John Lennon / Yoko Ono - Happy Xmas
- Ríu Ríu Chín
- Corramos, Corramos
- Georg Friederich Handel - Hallelujah aus dem Oratorium "Messiah"
- Franz Xaver Gruber - Stille Nacht, heilige Nacht
Доп. информация:
Aus dem Wiener Konzerthaus
Christmas in Vienna 2013 3sat.de
Ursula Langmayr Official Site
Angelika Kirchschlager from Wikipedia, the free encyclopedia
Joel Prieto Official Site
Luca Pisaroni Official Site
Luca Pisaroni from Wikipedia, the free encyclopedia
Erwin Ortner from Wikipedia, the free encyclopedia
ORF Radio-Symphonieorchester Wien Official Site
ORF Radio-Symphonieorchester Wien from Wikipedia, the free encyclopedia
Качество видео: HDTV 720p
Контейнер: TS
Видео кодек: H.264
Аудио кодек: AC3
Видео поток: 12.4 Mbps, 1280*720 (16:9), at 50.000 fps, AVC (High@L4.0) (CABAC / 6 Ref Frames)
Аудио поток: German, 256 Kbps, 48.0 KHz, 2 channels, MPEG Audio (Version 1) (Layer 2)
Аудио 2: 192 Kbps, 48.0 KHz, 2 channels, MPEG Audio (Version 1) (Layer 2)
Аудио 3: German, 448 Kbps, 48.0 KHz, 16 bits, 5 channels, AC-3
Аудио 4: Multiple languages, 192 Kbps, 48.0 KHz, 2 channels, MPEG Audio (Version 1) (Layer 2)
Источник: Digital Satellite > SkyStar HD2 (TechniSat) > raw data to HDD > Cypheros TS-Doctor > ts

MediaInfo

GeneralID : 8900 (0x22C4)Complete name : C:\rutracker.org_HD\3sat HD_Christmas in Vienna 2013.tsFormat : MPEG-TSFile size : 8.74 GiBDuration : 1h 28mnOverall bit rate mode : VariableOverall bit rate : 14.2 Mbps
VideoID : 6510 (0x196E)Menu ID : 11150 (0x2B8E)Format : AVCFormat/Info : Advanced Video CodecFormat profile : High@L4.0Format settings, CABAC : YesFormat settings, ReFrames : 6 framesCodec ID : 27Duration : 1h 28mnBit rate : 12.4 MbpsWidth : 1 280 pixelsHeight : 720 pixelsDisplay aspect ratio : 16:9Frame rate : 50.000 fpsColor space : YUVChroma subsampling : 4:2:0Bit depth : 8 bitsScan type : ProgressiveBits/(Pixel*Frame) : 0.269Stream size : 7.63 GiB (87%)Color primaries : BT.709Transfer characteristics : BT.709Matrix coefficients : BT.709
Audio #1ID : 6520 (0x1978)Menu ID : 11150 (0x2B8E)Format : MPEG AudioFormat version : Version 1Format profile : Layer 2Codec ID : 3Duration : 1h 28mnBit rate mode : ConstantBit rate : 256 KbpsChannel(s) : 2 channelsSampling rate : 48.0 KHzCompression mode : LossyDelay relative to video : -510msStream size : 161 MiB (2%)Language : German
Audio #2ID : 6521 (0x1979)Menu ID : 11150 (0x2B8E)Format : MPEG AudioFormat version : Version 1Format profile : Layer 2Codec ID : 3Duration : 1h 28mnBit rate mode : ConstantBit rate : 192 KbpsChannel(s) : 2 channelsSampling rate : 48.0 KHzCompression mode : LossyDelay relative to video : -510msStream size : 121 MiB (1%)
Audio #3ID : 6522 (0x197A)Menu ID : 11150 (0x2B8E)Format : AC-3Format/Info : Audio Coding 3Mode extension : CM (complete main)Format settings, Endianness : BigCodec ID : 6Duration : 1h 28mnBit rate mode : ConstantBit rate : 448 KbpsChannel(s) : 5 channelsChannel positions : Front: L C R, Side: L RSampling rate : 48.0 KHzBit depth : 16 bitsCompression mode : LossyDelay relative to video : -500msStream size : 282 MiB (3%)Language : German
Audio #4ID : 6523 (0x197B)Menu ID : 11150 (0x2B8E)Format : MPEG AudioFormat version : Version 1Format profile : Layer 2Codec ID : 3Duration : 1h 28mnBit rate mode : ConstantBit rate : 192 KbpsChannel(s) : 2 channelsSampling rate : 48.0 KHzCompression mode : LossyDelay relative to video : -430msStream size : 121 MiB (1%)Language : Multiple languages
... info ...">

Скриншоты ... info ...


Christmas in Vienna 2013
3sat zeigt eine Aufzeichnung des traditionellen Adventkonzerts "Christmas in Vienna" aus dem Jahr 2013.
Das traditionelle Adventkonzert versammelte auch 2013 ein Quartett von heimischen und internationalen Sängergrößen: Ursula Langmayr, Angelika Kirchschlager, Joel Prieto und Luca Pisaroni sangen Weihnachtslieder aus aller Welt. Neben der Wiener Singakademie waren auch die Wiener Sängerknaben wieder mit dabei. Begleitet wurden sie vom ORF-Radiosymphonieorchester Wien unter der Leitung von Erwin Ortner.
~ 3sat.de



Показать сообщения:    

Текущее время: 06-Дек 13:14

Часовой пояс: UTC + 3


Вы не можете начинать темы
Вы не можете отвечать на сообщения
Вы не можете редактировать свои сообщения
Вы не можете удалять свои сообщения
Вы не можете голосовать в опросах
Вы не можете прикреплять файлы к сообщениям
Вы не можете скачивать файлы