Mozart!!! Symphonie in Es, KV 543; Symphonie in g, KV 550; Symphonie in C, KV 551 (Nikolaus Harnoncourt, Concentus Musicus Wien) styriarte 2014 [2014, Classical / Symphony, HDTV 720p]


 

[Цитировать]

Wolfgang Amadeus Mozart
Symphonie in Es, KV 543; Symphonie in g, KV 550; Symphonie in C, KV 551
styriarte 2014
Nikolaus Harnoncourt • Concentus Musicus Wien

-
Год выпуска: 2014
Лейбл: ORF St
Жанр: Classical / Symphony
Продолжительность: 01:50:49
Режиссер: Volker Grohskopf
Исполнители:
Nikolaus Harnoncourt - musikalische leitung
Concentus Musicus Wien - orchester
Треклист:
Wolfgang Amadeus Mozart
- Sinfonie in Es, KV 543
- Sinfonie in g, KV 550
- Sinfonie in C, KV 551 "Jupiter-Sinfonie"
Доп. информация:
Aus dem Stefaniensaal in Graz, styriarte 2014
Harnoncourt dirigiert Mozart 3sat.de
styriarte from Wikipedia, the free encyclopedia
Nikolaus Harnoncourt Official Site
Nikolaus Harnoncourt from Wikipedia, the free encyclopedia
Nikolaus Harnoncourt материал из Википедии - свободной энциклопедии
Concentus Musicus Wien from Wikipedia, the free encyclopedia
Качество видео: HDTV 720p
Контейнер: TS
Видео кодек: H.264
Аудио кодек: AC3
Видео поток: 11.8 Mbps, 1280*720 (16:9), at 50.000 fps, AVC (High@L4.0) (CABAC / 6 Ref Frames)
Аудио поток: German, 256 Kbps, 48.0 KHz, 2 channels, MPEG Audio (Version 1) (Layer 2)
Аудио 2: 192 Kbps, 48.0 KHz, 2 channels, MPEG Audio (Version 1) (Layer 2)
Аудио 3: German, 448 Kbps, 48.0 KHz, 16 bits, 6 channels, AC-3
Аудио 4: Multiple languages, 192 Kbps, 48.0 KHz, 2 channels, MPEG Audio (Version 1) (Layer 2)
Источник: Digital Satellite > SkyStar HD2 (TechniSat) > raw data to HDD > Cypheros TS-Doctor > ts

MediaInfo

GeneralID : 8900 (0x22C4)Complete name : C:\rutracker.org_HD\3sat HD_Mozart - styriarte 2014 (Concertus Musicus Wien, Nikolaus Harnoncourt).tsFormat : MPEG-TSFile size : 10.5 GiBDuration : 1h 50mnOverall bit rate mode : VariableOverall bit rate : 13.6 Mbps
VideoID : 6510 (0x196E)Menu ID : 11150 (0x2B8E)Format : AVCFormat/Info : Advanced Video CodecFormat profile : High@L4.0Format settings, CABAC : YesFormat settings, ReFrames : 6 framesCodec ID : 27Duration : 1h 50mnBit rate : 11.8 MbpsWidth : 1 280 pixelsHeight : 720 pixelsDisplay aspect ratio : 16:9Frame rate : 50.000 fpsColor space : YUVChroma subsampling : 4:2:0Bit depth : 8 bitsScan type : ProgressiveBits/(Pixel*Frame) : 0.257Stream size : 9.15 GiB (87%)Color primaries : BT.709Transfer characteristics : BT.709Matrix coefficients : BT.709
Audio #1ID : 6520 (0x1978)Menu ID : 11150 (0x2B8E)Format : MPEG AudioFormat version : Version 1Format profile : Layer 2Codec ID : 3Duration : 1h 50mnBit rate mode : ConstantBit rate : 256 KbpsChannel(s) : 2 channelsSampling rate : 48.0 KHzCompression mode : LossyDelay relative to video : -572msStream size : 203 MiB (2%)Language : German
Audio #2ID : 6521 (0x1979)Menu ID : 11150 (0x2B8E)Format : MPEG AudioFormat version : Version 1Format profile : Layer 2Codec ID : 3Duration : 1h 50mnBit rate mode : ConstantBit rate : 192 KbpsChannel(s) : 2 channelsSampling rate : 48.0 KHzCompression mode : LossyDelay relative to video : -572msStream size : 152 MiB (1%)
Audio #3ID : 6522 (0x197A)Menu ID : 11150 (0x2B8E)Format : AC-3Format/Info : Audio Coding 3Mode extension : CM (complete main)Format settings, Endianness : BigCodec ID : 6Duration : 1h 50mnBit rate mode : ConstantBit rate : 448 KbpsChannel(s) : 6 channelsChannel positions : Front: L C R, Side: L R, LFESampling rate : 48.0 KHzBit depth : 16 bitsCompression mode : LossyDelay relative to video : -682msStream size : 355 MiB (3%)Language : German
Audio #4ID : 6523 (0x197B)Menu ID : 11150 (0x2B8E)Format : MPEG AudioFormat version : Version 1Format profile : Layer 2Codec ID : 3Duration : 1h 50mnBit rate mode : ConstantBit rate : 192 KbpsChannel(s) : 2 channelsSampling rate : 48.0 KHzCompression mode : LossyDelay relative to video : -612msStream size : 152 MiB (1%)Language : Multiple languages
... info ...">

Скриншоты ... info ...


Harnoncourt dirigiert Mozart
Zehn Wochen des Sommers 1788 genügten Wolfgang Amadeus Mozart, um die Trias seiner letzten Symphonien zu vollenden. Für Nikolaus Harnoncourt sind sie mehr als drei einzelne symphonische Meisterwerke: Er deutet sie als geschlossenen Zyklus, als "Oratorium ohne Worte".
Die Überhöhung der Symphonie zum quasi-sakralen Ereignis und ein dramaturgisch gebundenes Ganzes, das von der langsamen Einleitung der großen Es-Dur-Symphonie bis zum fugierten Finale der "Jupiter" reicht: Unter der Leitung von Nikolaus Harnoncourt führte der Concentus Musicus Wien im Rahmen der "styriarte", der sommerlichen Musikfestspiele Steiermark, die letzten drei Symphonien von Wolfgang Amadeus Mozart am 5. Juli 2014 im Grazer Stefaniensaal auf.
Die Symphonie in Es, KV 543, die Symphonie in g, KV 550, sowie die Symphonie in C, KV 551, die sogenannte "Jupiter-Symphonie". Ganz Österreich konnte das Hochkulturereignis aus der Steiermark, die "ORF Steiermark Klangwolke", wieder im Radio und Fernsehen mitverfolgen. Die "styriarte"-Aufführung wurde außerdem auch zum Klangereignis im öffentlichen Raum: Public-Viewings auf öffentlichen Plätzen im gesamten österreichischen Bundesland luden zum kostenlosen Live-Kulturgenuss ein.
~ 3sat.de



Показать сообщения:    

Текущее время: 09-Дек 01:05

Часовой пояс: UTC + 3


Вы не можете начинать темы
Вы не можете отвечать на сообщения
Вы не можете редактировать свои сообщения
Вы не можете удалять свои сообщения
Вы не можете голосовать в опросах
Вы не можете прикреплять файлы к сообщениям
Вы не можете скачивать файлы