Patricia Kopatchinskaja - Anke hat Zeit 2014 (Manuel de Falla, Heinz Holliger) [2014, Classical, HDTV 720p]


 

[Цитировать]

Patricia Kopatchinskaja
Anke hat Zeit 2014

-
Год выпуска: 2014
Лейбл: WDR
Жанр: Classical
Продолжительность: 00:07:07
Исполнители:
Patricia Kopatchinskaja - violin, voice
Треклист:
Manuel de Falla - Suite populaire Espagnole, 6. satz
Heinz Holliger - Das kleine irgendwas
Доп. информация:
... представленный здесь материал, это фрагмент шоу-программы "Anke hat Zeit" немецкого телеканала WDR с участием Patricia Kopatchinskaja ...
... есть небольшое интервью Patricia Kopatchinskaja с ведущей программы Anke Engelke (немецкий язык) ...

Patricia Kopatchinskaja - Anke hat Zeit wdr.de
Patricia Kopatchinskaja Official Site
Patricia Kopatchinskaja from Wikipedia, the free encyclopedia
Patricia Kopatchinskaja материал из Википедии - свободной энциклопедии
Качество видео: HDTV 720p
Контейнер: TS
Видео кодек: H.264
Аудио кодек: AC3
Видео поток: 8 397 Kbps, 1280*720 (16:9), at 50.000 fps, AVC (High@L4.0) (CABAC / 4 Ref Frames)
Аудио поток: German, 192 Kbps, 48.0 KHz, 2 channels, MPEG Audio (Version 1) (Layer 2)
Аудио 2: 192 Kbps, 48.0 KHz, 2 channels, MPEG Audio (Version 1) (Layer 2)
Аудио 3: German, 448 Kbps, 48.0 KHz, 16 bits, 2 channels, AC-3
Источник: Digital Satellite > SkyStar HD2 (TechniSat) > raw data to HDD > Cypheros TS-Doctor > VideoReDo TVSuite v4 (cut) > ts

MediaInfo

GeneralID : 1 (0x1)Complete name : C:\rutracker.org_HD_Anke hat Zeit\WDR HD_Patricia Kopatchinskaja - Anke hat Zeit 2014.tsFormat : MPEG-TSFile size : 495 MiBDuration : 7mn 7sOverall bit rate mode : VariableOverall bit rate : 9 717 Kbps
VideoID : 5501 (0x157D)Menu ID : 1 (0x1)Format : AVCFormat/Info : Advanced Video CodecFormat profile : High@L4.0Format settings, CABAC : YesFormat settings, ReFrames : 4 framesCodec ID : 27Duration : 7mn 7sBit rate : 8 397 KbpsWidth : 1 280 pixelsHeight : 720 pixelsDisplay aspect ratio : 16:9Frame rate : 50.000 fpsColor space : YUVChroma subsampling : 4:2:0Bit depth : 8 bitsScan type : ProgressiveBits/(Pixel*Frame) : 0.182Stream size : 428 MiB (86%)
Audio #1ID : 5502 (0x157E)Menu ID : 1 (0x1)Format : MPEG AudioFormat version : Version 1Format profile : Layer 2Codec ID : 3Duration : 7mn 7sBit rate mode : ConstantBit rate : 192 KbpsChannel(s) : 2 channelsSampling rate : 48.0 KHzCompression mode : LossyStream size : 9.79 MiB (2%)Language : German
Audio #2ID : 5503 (0x157F)Menu ID : 1 (0x1)Format : MPEG AudioFormat version : Version 1Format profile : Layer 2Codec ID : 3Duration : 7mn 7sBit rate mode : ConstantBit rate : 192 KbpsChannel(s) : 2 channelsSampling rate : 48.0 KHzCompression mode : LossyStream size : 9.79 MiB (2%)
Audio #3ID : 5506 (0x1582)Menu ID : 1 (0x1)Format : AC-3Format/Info : Audio Coding 3Mode extension : CM (complete main)Format settings, Endianness : BigCodec ID : 6Duration : 7mn 7sBit rate mode : ConstantBit rate : 448 KbpsChannel(s) : 2 channelsChannel positions : Front: L RSampling rate : 48.0 KHzBit depth : 16 bitsCompression mode : LossyStream size : 22.8 MiB (5%)Language : German
... info ...">

Скриншоты ... info ...


Patricia Kopatchinskaja wurde 1977 in Moldawien geboren. Sie stammt aus einer Musikerfamilie und begann mit sechs Jahren, Geige zu spielen. 1989 emigrierte die Familie nach Wien, wo Kopatchinskaja schließlich an der Universität für Musik und darstellende Kunst studierte. Mit 21 Jahren wechselte sie als Stipendiatin nach Bern, wo sie 2000 ihr Violin-Diplom ablegte. Kopatchinskaja ist eine besonders leidenschaftliche und energiegeladene, auch abenteuerlustige Geigerin, die sowohl Publikum als auch Musikerkollegen mit ihrem Temperament und ihrer Spielfreude ansteckt.
Als Solistin spielte sie - übrigens oft barfuß - bereits mit vielen namhaften Orchestern zusammen, darunter u. a. das London Philharmonic Orchestra, Musica Aeterna Perm, Orchestre National de France, Staatskapelle Berlin, Wiener Philharmoniker und Berliner Philharmoniker. Daneben spielt sie auch sehr gern Kammermusik - u. a. mit Sol Gabetta - und gründete ein eigenes Streichquartett „Quartet-Lab“. Neben dem klassischen Repertoire brachte sie auch bereits etliche neue Violinkonzerte zur Uraufführung, die zum Teil für sie komponiert wurden. Kopatchinskaja hat im Laufe ihrer Karriere viele Preise erhalten, darunter den Förderpreis Deutschlandfunk 2006, BBC-Music-Magazine Award 2010, den Praetorius Musikpreis 2012, den belgischen Prix Caecilia, sowie zweimal den „Echo Klassik“ (2009 und 2013) und wurde von der Royal Philharmonic Society für ihre Live-Auftritte in Großbritannien als Instrumentalistin des Jahres 2013 geehrt. Kopatchinskaja veröffentlichte u. a. die Alben „Beethoven - Ravel - Bartok - Say“ zusammen mit Fazil Say (2009), „Rapsodia - The Music of My Life“ (2010), „Bartók, Eötvös, Ligeti: Violinkonzerte“ (2012), „Prokofiev & Stravinsky: Violinkonzerte“ (2013) sowie „Tigran Mansurian: Quasi Parlando“ und „Galina Ustvolskaya“ (beide 2014).
~ wdr.de



Показать сообщения:    

Текущее время: 10-Дек 17:45

Часовой пояс: UTC + 3


Вы не можете начинать темы
Вы не можете отвечать на сообщения
Вы не можете редактировать свои сообщения
Вы не можете удалять свои сообщения
Вы не можете голосовать в опросах
Вы не можете прикреплять файлы к сообщениям
Вы не можете скачивать файлы