Leonard Bernstein - Ouverture aus: Candide; Дмитрий Шостакович (Shostakovich) - Concerto for Piano, Trumpet and Strings; Johannes Brahms - Symphony No. 4 (WDR Sinfonieorchester Koln, Jukka-Pekka Saraste, Jean-Yves Thibaudet) [2014, Classical, HDTV 72


 

[Цитировать]

Leonard Bernstein - Ouvertüre aus: Candide
Dmitri Shostakovich - Konzert für Klavier, Streichorchester und
Trompete c-Moll op. 35

Johannes Brahms - Sinfonie Nr. 4 e-Moll op. 98

Jukka-Pekka Saraste • WDR Sinfonieorchester Köln

-
Год выпуска: 2014
Лейбл: WDR
Жанр: Classical / Orchestral
Продолжительность: 01:10:34
Режиссер: János Darvas
Исполнители:
Jean-Yves Thibaudet - klavier
Peter Mönkediek - trompete
WDR Sinfonieorchester Köln
Jukka-Pekka Saraste - leitung
Треклист:
Leonard Bernstein
- Ouvertüre aus: Candide
Dmitri Shostakovich
- Konzert für Klavier, Streichorchester und Trompete c-Moll op. 35
Johannes Brahms
- Sinfonie Nr. 4 e-Moll op. 98
Доп. информация:
Aus der Kölner Philharmonie
Jukka-Pekka Saraste dirigiert Bernstein, Schostakowitsch und Brahms 3sat.de
Kölner Philharmonie Official Site
Jukka-Pekka Saraste Official Site
Jukka-Pekka Saraste from Wikipedia, the free encyclopedia
Jukka-Pekka Saraste материал из Википедии - свободной энциклопедии
Jean-Yves Thibaudet Official Site
Jean-Yves Thibaudet from Wikipedia, the free encyclopedia
Качество видео: HDTV 720p
Контейнер: TS
Видео кодек: H.264
Аудио кодек: AC3
Видео поток: 11.6 Mbps, 1280*720 (16:9), at 50.000 fps, AVC (High@L4.0) (CABAC / 6 Ref Frames)
Аудио поток: German, 256 Kbps, 48.0 KHz, 2 channels, MPEG Audio (Version 1) (Layer 2)
Аудио 2: 192 Kbps, 48.0 KHz, 2 channels, MPEG Audio (Version 1) (Layer 2)
Аудио 3: German, 448 Kbps, 48.0 KHz, 16 bits, 2 channels, AC-3
Аудио 4: Multiple languages, 192 Kbps, 48.0 KHz, 2 channels, MPEG Audio (Version 1) (Layer 2)
Источник: Digital Satellite > SkyStar HD2 (TechniSat) > raw data to HDD > Cypheros TS-Doctor > ts

MediaInfo

GeneralID : 8900 (0x22C4)Complete name : C:\rutracker.org_HD\3sat HD_WDR Sinfonieorchester Koln, Jukka-Pekka Saraste (2014).tsFormat : MPEG-TSFile size : 6.58 GiBDuration : 1h 10mnOverall bit rate mode : VariableOverall bit rate : 13.4 Mbps
VideoID : 6510 (0x196E)Menu ID : 11150 (0x2B8E)Format : AVCFormat/Info : Advanced Video CodecFormat profile : High@L4.0Format settings, CABAC : YesFormat settings, ReFrames : 6 framesFormat settings, GOP : M=4, N=29Codec ID : 27Duration : 1h 10mnBit rate : 11.6 MbpsWidth : 1 280 pixelsHeight : 720 pixelsDisplay aspect ratio : 16:9Frame rate : 50.000 fpsColor space : YUVChroma subsampling : 4:2:0Bit depth : 8 bitsScan type : ProgressiveBits/(Pixel*Frame) : 0.252Stream size : 5.72 GiB (87%)Color primaries : BT.709Transfer characteristics : BT.709Matrix coefficients : BT.709
Audio #1ID : 6520 (0x1978)Menu ID : 11150 (0x2B8E)Format : MPEG AudioFormat version : Version 1Format profile : Layer 2Codec ID : 3Duration : 1h 10mnBit rate mode : ConstantBit rate : 256 KbpsChannel(s) : 2 channelsSampling rate : 48.0 KHzCompression mode : LossyDelay relative to video : -711msStream size : 129 MiB (2%)Language : German
Audio #2ID : 6521 (0x1979)Menu ID : 11150 (0x2B8E)Format : MPEG AudioFormat version : Version 1Format profile : Layer 2Codec ID : 3Duration : 1h 10mnBit rate mode : ConstantBit rate : 192 KbpsChannel(s) : 2 channelsSampling rate : 48.0 KHzCompression mode : LossyDelay relative to video : -711msStream size : 96.9 MiB (1%)
Audio #3ID : 6522 (0x197A)Menu ID : 11150 (0x2B8E)Format : AC-3Format/Info : Audio Coding 3Mode extension : CM (complete main)Format settings, Endianness : BigCodec ID : 6Duration : 1h 10mnBit rate mode : ConstantBit rate : 448 KbpsChannel(s) : 2 channelsChannel positions : Front: L RSampling rate : 48.0 KHzBit depth : 16 bitsCompression mode : LossyDelay relative to video : -593msStream size : 226 MiB (3%)Language : German
Audio #4ID : 6523 (0x197B)Menu ID : 11150 (0x2B8E)Format : MPEG AudioFormat version : Version 1Format profile : Layer 2Codec ID : 3Duration : 1h 10mnBit rate mode : ConstantBit rate : 192 KbpsChannel(s) : 2 channelsSampling rate : 48.0 KHzCompression mode : LossyDelay relative to video : -631msStream size : 96.9 MiB (1%)Language : Multiple languages
... info ...">

Скриншоты ... info ...


Jukka-Pekka Saraste dirigiert Bernstein, Schostakowitsch und Brahms
Jukka-Pekka Saraste dirigiert bedeutende Stücke von Leonard Bernstein, Dmitrij Schostakowitsch und Johannes Brahms. 3sat zeigt eine Aufzeichnung des Konzerts aus der Kölner Philharmonie vom Mai 2014.
Dmitrij Schostakowitsch schuf im Sommer 1933 sein Klavierkonzert, das er voller Optimismus eine "spöttische Herausforderung an den konservativ-seriösen Charakter des klassischen Konzert-Gestus" nannte. Drei Jahre später geriet er erstmals ins Zielfeuer der stalinschen Zensur, die ihn zu einem Seiltanz zwischen Anpassung und künstlerischer Integrität zwang. Ebenfalls gänzlich kompromisslos schrieb Johannes Brahms seine vierte Sinfonie, die den umgekehrten Weg nahm: Sie musste sich zunächst im Freundeskreis des Komponisten behaupten, bevor sie den Siegeszug durch die Konzertsäle antrat.
~ 3sat.de



Показать сообщения:    

Текущее время: 07-Дек 23:15

Часовой пояс: UTC + 3


Вы не можете начинать темы
Вы не можете отвечать на сообщения
Вы не можете редактировать свои сообщения
Вы не можете удалять свои сообщения
Вы не можете голосовать в опросах
Вы не можете прикреплять файлы к сообщениям
Вы не можете скачивать файлы