Johannes Brahms - Ein deutsches Requiem (WDR Sinfonieorchester Koln, Jukka-Pekka Saraste, Hanna-Elisabeth Muller, Andre Schuen) [2014, Classical / Choral / Symphony, HDTV 720p]


 

[Цитировать]

Johannes Brahms
Ein deutsches Requiem nach Worten der Heiligen Schrift
für Soli, Chor und Orchester op. 45

WDR Sinfonieorchester Köln • Jukka-Pekka Saraste

-
Год выпуска: 2014
Лейбл: WDR
Жанр: Classical / Choral / Symphony
Продолжительность: 01:08:30
Язык: немецкий
Режиссер: Hans Hadulla
Исполнители:
NDR Chor
WDR Rundfunkchor
Robert Blank - einstudierung
WDR Sinfonieorchester Köln
Hanna-Elisabeth Müller - sopran
Andrè Schuen - bariton
Jukka-Pekka Saraste - leitung
Треклист:
Johannes Brahms
- Ein deutsches Requiem nach Worten der Heiligen Schrift für Soli, Chor und Orchester op. 45
Доп. информация:
Aus der Kölner Philharmonie
Jukka-Pekka Saraste dirigiert Brahms "Ein deutsches Requiem" 3sat.de
Kölner Philharmonie Official Site
Jukka-Pekka Saraste Official Site
Jukka-Pekka Saraste from Wikipedia, the free encyclopedia
Jukka-Pekka Saraste материал из Википедии - свободной энциклопедии
Hanna-Elisabeth Müller Official Site
Hanna-Elisabeth Müller from Wikipedia, the free encyclopedia
Andrè Schuen from Wikipedia, the free encyclopedia
Качество видео: HDTV 720p
Контейнер: TS
Видео кодек: H.264
Аудио кодек: AC3
Видео поток: 11.5 Mbps, 1280*720 (16:9), at 50.000 fps, AVC (High@L4.0) (CABAC / 6 Ref Frames)
Аудио поток: German, 256 Kbps, 48.0 KHz, 2 channels, MPEG Audio (Version 1) (Layer 2)
Аудио 2: 192 Kbps, 48.0 KHz, 2 channels, MPEG Audio (Version 1) (Layer 2)
Аудио 3: German, 448 Kbps, 48.0 KHz, 16 bits, 2 channels, AC-3
Аудио 4: Multiple languages, 192 Kbps, 48.0 KHz, 2 channels, MPEG Audio (Version 1) (Layer 2)
Источник: Digital Satellite > SkyStar HD2 (TechniSat) > raw data to HDD > Cypheros TS-Doctor > ts

MediaInfo

GeneralID : 1 (0x1)Complete name : C:\rutracker.org_HD\3sat HD_Johannes Brahms ''Ein deutsches Requiem'' 2014.tsFormat : MPEG-TSFile size : 6.32 GiBDuration : 1h 8mnOverall bit rate mode : VariableOverall bit rate : 13.2 Mbps
VideoID : 6510 (0x196E)Menu ID : 1 (0x1)Format : AVCFormat/Info : Advanced Video CodecFormat profile : High@L4.0Format settings, CABAC : YesFormat settings, ReFrames : 6 framesFormat settings, GOP : M=4, N=33Codec ID : 27Duration : 1h 8mnBit rate : 11.5 MbpsWidth : 1 280 pixelsHeight : 720 pixelsDisplay aspect ratio : 16:9Frame rate : 50.000 fpsColor space : YUVChroma subsampling : 4:2:0Bit depth : 8 bitsScan type : ProgressiveBits/(Pixel*Frame) : 0.249Stream size : 5.49 GiB (87%)Color primaries : BT.709Transfer characteristics : BT.709Matrix coefficients : BT.709
Audio #1ID : 6520 (0x1978)Menu ID : 1 (0x1)Format : MPEG AudioFormat version : Version 1Format profile : Layer 2Codec ID : 3Duration : 1h 8mnBit rate mode : ConstantBit rate : 256 KbpsChannel(s) : 2 channelsSampling rate : 48.0 KHzCompression mode : LossyStream size : 125 MiB (2%)Language : German
Audio #2ID : 6521 (0x1979)Menu ID : 1 (0x1)Format : MPEG AudioFormat version : Version 1Format profile : Layer 2Codec ID : 3Duration : 1h 8mnBit rate mode : ConstantBit rate : 192 KbpsChannel(s) : 2 channelsSampling rate : 48.0 KHzCompression mode : LossyStream size : 94.1 MiB (1%)
Audio #3ID : 6522 (0x197A)Menu ID : 1 (0x1)Format : AC-3Format/Info : Audio Coding 3Mode extension : CM (complete main)Format settings, Endianness : BigCodec ID : 6Duration : 1h 8mnBit rate mode : ConstantBit rate : 448 KbpsChannel(s) : 2 channelsChannel positions : Front: L RSampling rate : 48.0 KHzBit depth : 16 bitsCompression mode : LossyStream size : 220 MiB (3%)Language : German
Audio #4ID : 6523 (0x197B)Menu ID : 1 (0x1)Format : MPEG AudioFormat version : Version 1Format profile : Layer 2Codec ID : 3Duration : 1h 8mnBit rate mode : ConstantBit rate : 192 KbpsChannel(s) : 2 channelsSampling rate : 48.0 KHzCompression mode : LossyStream size : 94.1 MiB (1%)Language : Multiple languages
... info ...">

Скриншоты ... info ...


Jukka-Pekka Saraste dirigiert Brahms "Ein deutsches Requiem"
Jukka-Pekka Saraste leitet die Aufführung von Brahms' Werk in der Kölner Philharmonie. Als Solisten sind die Sopranistin Hanna-Elisabeth Müller und André Schuen, der den Bariton singt, zu hören. 3sat zeigt eine Konzertaufzeichnung aus der Kölner Philharmonie vom Oktober 2014.
Das "Deutsche Requiem" von Johannes Brahms wurde erstmals im Jahr 1869 in Leipzig vollständig aufgeführt. Von der Idee bis zur Uraufführung vergingen fast anderthalb Jahrzehnte. Viel Lebenserfahrung ist in diese Musik eingegangen, viel Trauerarbeit im Gedenken an Menschen, die dem Komponisten nahe standen, beispielsweise der väterliche Freund Robert Schumann. Die Auswahl biblischer Texte stellt aber weniger die Toten in den Mittelpunkt als vielmehr die Lebenden: Der Komponist lässt den Leidtragenden und Trostbedürftigen besondere Aufmerksamkeit zukommen.
~ 3sat.de



Показать сообщения:    

Текущее время: 05-Дек 07:26

Часовой пояс: UTC + 3


Вы не можете начинать темы
Вы не можете отвечать на сообщения
Вы не можете редактировать свои сообщения
Вы не можете удалять свои сообщения
Вы не можете голосовать в опросах
Вы не можете прикреплять файлы к сообщениям
Вы не можете скачивать файлы