W.A.Mozart - Piano Concertos Nos. 23 K. 488, 27 K. 595, Rondo in A Minor K. 511; Claude Debussy - Clair de lune (Menahem Pressler, Orchestre de Paris, Paavo Jarvi) [2014, Classical, Blu-ray]


 

[Цитировать]

Menahem Pressler, Paavo Järvi, Orchestre de Paris plays Mozart and Debussy
Год выпуска: 2014
Лейбл: EuroArts
Страна-производитель: EU
Жанр: Classical
Продолжительность: 01:22:14
Язык: Английский (conversation)
Перевод: Нет
Субтитры: Нет
Режиссеры: Sébastien Glas, Corentin Leconte
Исполнители:
Menahem Pressler, piano
Orchestre de Paris
Paavo Järvi, conductor

Треклист:
Wolfgang Amadeus Mozart (1756 - 1791)
- Piano Concerto No. 23, K. 488
- Rondo in A Minor, K. 511
- Piano Concerto No. 27, K. 595
Claude Debussy (1862 - 1918)
- Suite bergamasque: III. Clair de lune
• Recorded at Salle Pleyel, Paris, 29 January 2014 (K. 488, K. 511) and 17 October 2012 (K. 595, Clair de Lune)
Bonus:
- Menahem Pressler in conversation with Paavo Järvi
Доп. информация: Источник HDGeek, релизер pjhhd
Качество видео: Blu-ray
Формат/Контейнер: BDMV
Видео кодек: H.264 - MPEG-4 AVC
Аудио кодек: LPCM, DTS-HD
Видео поток: MPEG-4 AVC Video 21966 kbps 1080i / 29.970 fps / 16:9 / High Profile 4.1
Аудио поток 1: LPCM Audio 2.0 / 48 kHz / 2304 kbps / 24-bit
Аудио поток 2: DTS-HD Master Audio 5.0 / 48 kHz / 3636 kbps / 24-bit (DTS Core: 5.0 / 48 kHz / 1509 kbps / 24-bit)

BDInfo Report

DISC INFO:
Disc Title: PRESSLER JAERVIDisc Size: 21,706,196,620 bytesProtection: AACSBD-Java: NoBDInfo: 0.5.8
PLAYLIST REPORT:
Name: 00000.MPLSLength: 1:22:14.562 (h:m:s.ms)Size: 18,186,964,992 bytesTotal Bitrate: 29.49 Mbps
VIDEO:
Codec Bitrate Description----- ------- -----------MPEG-4 AVC Video 21966 kbps 1080i / 29.970 fps / 16:9 / High Profile 4.1
AUDIO:
Codec Language Bitrate Description----- -------- ------- -----------LPCM Audio Undetermined 2304 kbps 2.0 / 48 kHz / 2304 kbps / 24-bitDTS-HD Master Audio Undetermined 3636 kbps 5.0 / 48 kHz / 3636 kbps / 24-bit (DTS Core: 5.0 / 48 kHz / 1509 kbps / 24-bit)
FILES:
Name Time In Length Size Total Bitrate---- ------- ------ ---- -------------00000.M2TS 0:00:00.000 1:22:06.187 18,184,857,600 29,53200008.M2TS 1:22:06.187 0:00:08.041 2,095,104 2,08400007.M2TS 1:22:14.229 0:00:00.333 12,288 295
CHAPTERS:
Number Time In Length Avg Video Rate Max 1-Sec Rate Max 1-Sec Time Max 5-Sec Rate Max 5-Sec Time Max 10Sec Rate Max 10Sec Time Avg Frame Size Max Frame Size Max Frame Time------ ------- ------ -------------- -------------- -------------- -------------- -------------- -------------- -------------- -------------- -------------- --------------1 0:00:00.000 0:01:17.844 20,008 kbps 35,316 kbps 00:00:53.586 33,383 kbps 00:00:51.184 30,941 kbps 00:00:49.382 83,412 bytes 731,012 bytes 00:01:09.4022 0:01:17.844 0:11:27.053 24,742 kbps 33,746 kbps 00:04:57.163 29,900 kbps 00:10:20.486 28,824 kbps 00:10:16.382 103,197 bytes 513,449 bytes 00:01:20.2463 0:12:44.897 0:06:16.976 24,341 kbps 30,657 kbps 00:14:50.956 28,397 kbps 00:14:48.454 27,002 kbps 00:17:03.222 101,522 bytes 349,801 bytes 00:14:47.9534 0:19:01.874 0:10:47.713 24,551 kbps 30,836 kbps 00:21:42.534 27,952 kbps 00:28:29.441 27,351 kbps 00:28:28.273 102,399 bytes 325,303 bytes 00:25:34.6665 0:29:49.587 0:12:13.165 24,124 kbps 36,069 kbps 00:31:15.974 30,251 kbps 00:41:30.988 27,723 kbps 00:31:34.425 100,616 bytes 597,104 bytes 00:31:16.0406 0:42:02.753 0:14:14.286 20,235 kbps 38,285 kbps 00:44:27.431 31,416 kbps 00:42:11.829 29,420 kbps 00:42:06.924 84,396 bytes 656,586 bytes 00:42:28.0787 0:56:17.040 0:08:22.635 18,127 kbps 33,160 kbps 00:58:47.557 28,783 kbps 00:58:43.586 25,843 kbps 00:58:38.414 75,605 bytes 330,369 bytes 01:03:19.4958 1:04:39.675 0:11:02.628 19,683 kbps 38,220 kbps 01:05:46.509 29,186 kbps 01:14:00.035 25,090 kbps 01:04:48.951 82,095 bytes 370,216 bytes 01:05:21.7519 1:15:42.304 0:05:38.337 19,107 kbps 32,996 kbps 01:21:01.957 27,086 kbps 01:20:57.986 25,982 kbps 01:20:32.661 79,692 bytes 362,787 bytes 01:17:24.27210 1:21:20.642 0:00:45.545 25,212 kbps 33,374 kbps 01:21:42.864 31,914 kbps 01:21:41.263 30,868 kbps 01:21:40.262 105,154 bytes 292,940 bytes 01:21:50.20511 1:22:06.187 0:00:08.375 1,820 kbps 3,711 kbps 01:22:07.289 2,363 kbps 01:22:06.187 0 kbps 00:00:00.000 7,619 bytes 26,315 bytes 01:22:09.391
STREAM DIAGNOSTICS:
File PID Type Codec Language Seconds Bitrate Bytes Packets---- --- ---- ----- -------- -------------- -------------- ------------- -----00000.M2TS 4113 (0x1011) 0x1B AVC 4926.088 22,000 13,546,861,583 73,710,48200000.M2TS 4352 (0x1100) 0x80 LPCM und (Undetermined) 4926.088 2,310 1,422,673,564 7,881,84800000.M2TS 4353 (0x1101) 0x86 DTS-HD MA und (Undetermined) 4926.088 3,642 2,242,679,220 12,955,37100008.M2TS 4113 (0x1011) 0x1B AVC 7.975 1,906 1,900,213 10,63300007.M2TS 4113 (0x1011) 0x1B AVC 0.200 244 6,107 41



Показать сообщения:    

Текущее время: 06-Дек 13:13

Часовой пояс: UTC + 3


Вы не можете начинать темы
Вы не можете отвечать на сообщения
Вы не можете редактировать свои сообщения
Вы не можете удалять свои сообщения
Вы не можете голосовать в опросах
Вы не можете прикреплять файлы к сообщениям
Вы не можете скачивать файлы