Бах - Страсти по Матфею (Концертный зал Консертгебау, Амстердам; Дик Квийс, Иван Фишер) / Johann Sebastian Bach - St. Matthew Passion, BWV 244 (Het Concertgebouw Amsterdam; Dick Kuijs, Ivan Fischer) [2012, Baroque, Blu-ray 1080i]


 

[Цитировать]

Иоганн Себастьян Бах - Страсти по Матфею / Johann Sebastian Bach - St. Matthew Passion
Год выпуска: 2012
Лейбл: Arthaus Musik, RSO, Mezzo Live HD
Страна-производитель: США, Нидерланды, Франция
Жанр: Baroque
Продолжительность: 02:52:47
Язык: Английский
Субтитры: Английские, французские, немецкие, испанские, японские
Режиссер: Dick Kuijs (Дик Квийс)
Дирижер: Iván Fischer (Иван Фишер)
Исполнители:
Mark Padmore (Марк Пэдмор) - Tenor-Evangelist,
Peter Harvey (Питер Харви) - Christus,
Maria Espada (Мария Эспада) - Soprano,
Ingeborg Danz (Ингеборг Данц) - Mezzo Soprano /Alto,
Renate Arends (Ренате Арендс) - Soprano,
Barbara Kozelj (Барбара Козели) - Mezzo Soprano /Alto,
Peter Gijsbertsen (Петер Гийзбертсен) - Tenor,
Henk Neven (Хенк Невен) - Bass
Royal Concertgebouw Orchestra (Королевский оркестр Консертгебау), Netherlands Radio Chamber Choir (Хор Нидерландского национального радио), Netherlands National Children's Choir (Нидерландский Национальный детский хор)
Описание: «Страсти по Матфею» (нем. Matthäus-Passion или Matthæus Passion), BWV 244 — музыкальное произведение И. С. Баха для солистов, двух хоров и двух оркестров, созданное в 1727—1729 годах. Полное название: Passio Domini nostri Jesu Christi secundum Matthaeum. Либретто Х. Ф. Генрици (Пикандера).
Страсти, или пассион, являются одними из наиболее масштабных вокальных произведений Баха и состоят из 78 музыкальных номеров, в том числе речитативов (включая чтение Евангелия нараспев), арий, хоралов и хоров. Общая продолжительность звучания — около 3 часов. Произведение, предназначенное для исполнения за лютеранским богослужением, в наши дни чаще исполняется на концертах. Благодаря драматизированному сюжету и конкретным действующим лицам, пассионы тяготеют к опере больше, чем другие хоровые произведения Баха. Музыка «Страстей по Матфею» принадлежит к вершинам творчества композитора.

Оригинальное описание

This 2012 recording of the most influential and wide spread oratorio by Johann Sebastian Bach features the Hungarian conductor Iván Fischer, a visionary in his field, with the Royal Concertgebouw Orchestra in Amsterdam. The double choir is the essential musical aspect on which Iván Fischer’s interpretation of Bach’s St. Matthew Passion is based. Only by consistently seizing on that duality will all the complementary layers stand out as they should. He describes this essential fundamental aspect as follows: “You can’t do the St. Matthew in an unreligious way. The only approach is from a deep, universally religious feeling.” The internationally renowned tenor Mark Padmore is brilliant as the Evangelist, Peter Harvey gives a moving interpretation of Christ. Together with Ingeborg Danz, Renate Arends, Maria Espada, Barbara Kozelj, Peter Gijsbertsen and Henk Neven and the Netherlands Radio Choir they carry the audience through an affecting performance of this masterwork.
Recorded live from Het Concertgebouw Amsterdam, 2012.
Бонусы: Анонсы музыкальных дисков.
Качество видео: Blu-ray
Формат/Контейнер: BDMV
Видео кодек: MPEG4
Аудио кодек: LPCM, DTS
Видео поток: MPEG-4 Video, 1920x1080, 23967 kbps, 29.970 fps
Аудио поток: LPCM, 1536 kbps, 48 kHz, 2 ch. DTS-HD MA, 2044 kbps, 48 kHz, 5 ch

BD-Info

DISC INFO:
Disc Title: Бах - Страсти по Матфею (Het Concertgebouw Amsterdam) (2012) (Blu-ray 1080i, AVC, DTS-HD 5.0)
Disc Size: 39,241,005,936 bytes
Protection: AACS
BD-Java: No
BDInfo: 0.5.8
PLAYLIST REPORT:
Name: 00009.MPLS
Length: 2:52:47.824 (h:m:s.ms)
Size: 38,050,019,328 bytes
Total Bitrate: 29.36 Mbps
VIDEO:
Codec Bitrate Description
----- ------- -----------
MPEG-4 AVC Video 23967 kbps 1080i / 29.970 fps / 16:9 / High Profile 4.1
AUDIO:
Codec Language Bitrate Description
----- -------- ------- -----------
LPCM Audio Undetermined 1536 kbps 2.0 / 48 kHz / 1536 kbps / 16-bit
DTS-HD Master Audio Undetermined 2044 kbps 5.0 / 48 kHz / 2044 kbps / 24-bit (DTS Core: 5.0 / 48 kHz / 1509 kbps / 24-bit)
SUBTITLES:
Codec Language Bitrate Description
----- -------- ------- -----------
Presentation Graphics German 11.624 kbps
Presentation Graphics English 10.998 kbps
Presentation Graphics French 10.670 kbps
Presentation Graphics Spanish 11.253 kbps
Presentation Graphics Japanese 11.163 kbps
FILES:
Name Time In Length Size Total Bitrate
---- ------- ------ ---- -------------
00001.M2TS 0:00:00.000 2:52:33.443 38,048,894,976 29,400
00005.M2TS 2:52:33.443 0:00:14.047 1,112,064 633
00000.M2TS 2:52:47.490 0:00:00.333 12,288 295
Семпл

Скриншоты


Скриншоты доп. материалов

Бах - Страсти по Матфею (Лейпциг, церковь Святого Фомы; Михаэль Байер; Георг Кристоф Биллер) / J.S. Bach - St. Matthew Passion, BWV 244 (St Thomas Church, Leipzig; Michael Beyer; Michael Beyer; Georg Christophe Biller) [2012, Baroque, Blu-ray 1080i]



Показать сообщения:    

Текущее время: 04-Дек 21:24

Часовой пояс: UTC + 3


Вы не можете начинать темы
Вы не можете отвечать на сообщения
Вы не можете редактировать свои сообщения
Вы не можете удалять свои сообщения
Вы не можете голосовать в опросах
Вы не можете прикреплять файлы к сообщениям
Вы не можете скачивать файлы