Ludwig van Beethoven - Piano Concerto No. 3, Op. 37 · Richard Strauss - Ein Heldenleben (A Hero's Life), Op. 40 (Mitsuko Uchida, Symphonieorchester des Bayerischen Rundfunks, Mariss Jansons) (Brian Large) [2011, Classical, Blu-ray]


 

[Цитировать]

Ludwig van Beethoven - Piano Concerto No. 3 · Richard Strauss - Ein Heldenleben · Mitsuko Uchida, Mariss Jansons
Год выпуска: 2011
Лейбл: Arthaus Musik, BR Klassik
Страна-производитель: Германия
Жанр: Classical
Продолжительность: 44:59 + 50:02
Язык: Нет
Перевод: Нет
Субтитры: Нет
Режиссер: Brian Large
Исполнители:
Mitsuko Uchida (piano)
Symphonieorchester des Bayerischen Rundfunks
Mariss Jansons

Треклист:
Ludwig van Beethoven: Piano Concerto No. 3 in C minor, Op. 37
Richard Strauss: Ein Heldenleben (A Hero's Life), Op. 40, TrV 190

Recorded live from the Philharmonie im Gasteig, Munich, 2011.
Доп. информация: источник hdclub, релизер BLUE_LIFE
Качество видео: Blu-ray
Формат/Контейнер: BDMV
Видео кодек: H.264 - MPEG-4 AVC
Аудио кодек: LPCM, DTS-HD
Видео поток: MPEG-4 AVC Video 21447 kbps 1080i / 29.970 fps / 16:9 / High Profile 4.1
Аудио поток 1: LPCM Audio 2.0 / 48 kHz / 2304 kbps / 24-bit
Аудио поток 2: DTS-HD Master Audio 5.0 / 48 kHz / 3338 kbps / 24-bit (DTS Core: 5.0 / 48 kHz / 1509 kbps / 24-bit)

BDInfo Report

DISC INFO:
Disc Title: BEETHOVEN STRAUSSDisc Size: 21,657,447,969 bytesProtection: AACSBD-Java: NoBDInfo: 0.5.8
PLAYLIST REPORT:
Name: 00009.MPLSLength: 1:35:13.908 (h:m:s.ms)Size: 20,449,775,616 bytesTotal Bitrate: 28.63 Mbps
VIDEO:
Codec Bitrate Description----- ------- -----------MPEG-4 AVC Video 21447 kbps 1080i / 29.970 fps / 16:9 / High Profile 4.1
AUDIO:
Codec Language Bitrate Description----- -------- ------- -----------LPCM Audio Undetermined 2304 kbps 2.0 / 48 kHz / 2304 kbps / 24-bitDTS-HD Master Audio Undetermined 3338 kbps 5.0 / 48 kHz / 3338 kbps / 24-bit (DTS Core: 5.0 / 48 kHz / 1509 kbps / 24-bit)
FILES:
Name Time In Length Size Total Bitrate---- ------- ------ ---- -------------00001.M2TS 0:00:00.000 0:44:57.961 9,630,117,888 28,55500003.M2TS 0:44:57.961 0:50:01.565 10,818,533,376 28,83400005.M2TS 1:34:59.527 0:00:14.047 1,112,064 63300000.M2TS 1:35:13.574 0:00:00.333 12,288 295



Показать сообщения:    

Текущее время: 08-Дек 08:59

Часовой пояс: UTC + 3


Вы не можете начинать темы
Вы не можете отвечать на сообщения
Вы не можете редактировать свои сообщения
Вы не можете удалять свои сообщения
Вы не можете голосовать в опросах
Вы не можете прикреплять файлы к сообщениям
Вы не можете скачивать файлы