Оперный фестиваль в Зальцбурге (Даниэль Баренбойм; Д. Рёшманн, Э. Гаранча, К.Ф. Фогт, ) / Salzburg Festival Opening Concert (Daniel Barenboim; Dorothea Roschmann, Elīna Garanca, Klaus Florian Vogt, Rene Pape) [2010, Classical, Blu-ray 1080i]


 

[Цитировать]

Оперный фестиваль в Зальцбурге / Salzburg Festival Opening Concert
Год выпуска: 2010
Лейбл: C MAJOR, Unitel Classica
Страна-производитель: США
Жанр: Classical
Продолжительность: 01:25:25
Язык: Английский
Субтитры: Английские, французские, немецкие, испанские, латинские, корейские, японские, китайские
Дирижер: Daniel Barenboim (Даниэль Баренбойм)
Исполнители:
Dorothea Röschmann (Доротея Рёшманн) - soprano,
Elīna Garanča (Элина Гаранча) - mezzo-soprano,
Klaus Florian Vogt (Клаус Флориан Фогт) - tenor,
René Pape (Рене Папе) - bass
Vienna State Opera Chorus (хор Венской оперы), Vienna Philharmonic Orchestra (Венский филармонический оркестр)
Треклист:
01. Ludwig van Beethoven: Piano Concerto No. 4 in G major, Op. 58
02. Pierre Boulez: Notation I–IV & VII for orchestra
03. Anton Bruckner: Te Deum, WAB 45
Описание: Ежегодный музыкальный фестиваль в Зальцбурге (Австрия), в программу которого входят, наряду с концертами, также оперные спектакли. С 1877 в Зальцбурге начали проводить фестивали, посвящённые Моцарту. В 1917 был организован художественный комитет (куда входили Гофмансталь, Р. Штраус и другие), подготовивший фестиваль 1920 года. С этого времени фестивали стали ежегодными. Они проходят летом в большом фестивальном дворце (2160 мест, построен в 1960).
Первоначально в репертуаре были сочинения преимущественно австро-немецких композиторов (Моцарта, Глюка, Р. Штрауса и других). В последние годы звучат также сочинения и других авторов. С 1967 проводятся пасхальные фестивали, организованные Караяном (среди первых постановок «Кольцо нибелунга»). Художественным руководителем пасхального фестиваля является с 1994 Аббадо. В Зальцбурге выступали крупнейшие дирижёры XX века: Тосканини, Вальтер, Фуртвенглер, Караян. В 1928 на фестивале впервые выступили русские музыканты (оперная студия Ленинградской консерватории).

Оригинальное описание

As the 2010 Salzburg Festival marked two major landmark anniversaries – the Festival’s 90th and the Großes Festspielhaus’s 50th – a glamorous and very special opening concert was mandatory: Daniel Barenboim, the Vienna Philharmonic and a quartet of world-class singers opened the proceedings in style. Barenboim, who in 2010 also celebrated his 60th anniversary onstage, excelled as soloist and conductor of Beethoven’s unsurpassably lyrical Fourth Piano Concerto. And subsequently, under his baton, Dorothea Röschmann, Elina Garancˇa, Klaus Florian Vogt and René Pape delivered unforgettable performances in Bruckner’s poignant Te Deum.
Recorded at the Salzburg Festival, 2010.
Дополнительно: анонсы дисков.
Качество видео: Blu-ray
Формат/Контейнер: BDMV
Видео кодек: MPEG4
Аудио кодек: LPCM, DTS
Видео поток: MPEG-4 Video, 1920x1080, 22893 kbps, 29.970 fps
Аудио поток: LPCM, 2304 kbps, 48 kHz, 2 ch. DTS-HD MA, 3767 kbps, 48 kHz, 5 ch

BD-Info

DISC INFO:
Disc Title: Salzburg Festival Opening Concert (2010) (Blu-ray 1080i, AVC, DTS-HD 5.0-audi8914)
Disc Size: 21 184 499 709 bytes
Protection: AACS
BD-Java: No
BDInfo: 0.5.8
PLAYLIST REPORT:
Name: 00011.MPLS
Length: 1:25:25.520 (h:m:s.ms)
Size: 19 602 100 224 bytes
Total Bitrate: 30,60 Mbps
VIDEO:
Codec Bitrate Description
----- ------- -----------
MPEG-4 AVC Video 22893 kbps 1080i / 29,970 fps / 16:9 / High Profile 4.1
AUDIO:
Codec Language Bitrate Description
----- -------- ------- -----------
LPCM Audio Undetermined 2304 kbps 2.0 / 48 kHz / 2304 kbps / 24-bit
DTS-HD Master Audio Undetermined 3767 kbps 5.0 / 48 kHz / 3767 kbps / 24-bit (DTS Core: 5.0 / 48 kHz / 1509 kbps / 24-bit)
SUBTITLES:
Codec Language Bitrate Description
----- -------- ------- -----------
Presentation Graphics Latin 1,389 kbps
Presentation Graphics English 1,551 kbps
Presentation Graphics German 1,667 kbps
Presentation Graphics French 1,679 kbps
Presentation Graphics Spanish 1,508 kbps
Presentation Graphics Korean 1,322 kbps
Presentation Graphics Chinese 1,068 kbps
Presentation Graphics Japanese 1,239 kbps
FILES:
Name Time In Length Size Total Bitrate
---- ------- ------ ---- -------------
00000.M2TS 0:00:00.000 1:25:01.095 19 599 218 688 30 737
00004.M2TS 1:25:01.095 0:00:14.047 1 112 064 633
00003.M2TS 1:25:15.143 0:00:10.043 1 757 184 1 400
00005.M2TS 1:25:25.186 0:00:00.333 12 288 295
Семпл

Скриншоты






Показать сообщения:    

Текущее время: 08-Дек 01:18

Часовой пояс: UTC + 3


Вы не можете начинать темы
Вы не можете отвечать на сообщения
Вы не можете редактировать свои сообщения
Вы не можете удалять свои сообщения
Вы не можете голосовать в опросах
Вы не можете прикреплять файлы к сообщениям
Вы не можете скачивать файлы