Benjamin Britten - War Requiem, Op. 66 (Erin Wall, Mark Padmore, Hanno Muller-Brachmann, City of Birmingham Symphony Orchestra & Chorus, Andris Nelsons) (Ute Feudel) [2012, Classical, Choral, Blu-ray]


 

[Цитировать]

Benjamin Britten - War Requiem50th Anniversary Performance Год выпуска: 2012
Лейбл: Arthaus Musik, Unitel Classica
Страна-производитель: EU
Жанр: Classical, Choral
Продолжительность: 01:36:50
Язык: Английский
Перевод: Нет
Субтитры: English, German, French, Spanish
Режиссер: Ute Feudel
Исполнители:
Erin Wall (soprano)
Mark Padmore (tenor)
Hanno Müller-Brachmann (baritone)
City of Birmingham Symphony Youth Chorus
City of Birmingham Symphony Chorus
City of Birmingham Symphony Orchestra
Andris Nelsons
Треклист:
Benjamin Britten (1913 – 1976)
War Requiem, Op. 66 (1961-62)
Recorded live at Coventry Cathedral 50th Anniversary Performance Concert, 30 May 2012.
Доп. информация: источник hdclub, релизер BLUE_LIFE
Качество видео: Blu-ray
Формат/Контейнер: BDMV
Видео кодек: H.264 - MPEG-4 AVC
Аудио кодек: LPCM, DTS-HD
Видео поток: MPEG-4 AVC Video 19951 kbps 1080i / 29.970 fps / 16:9 / High Profile 4.1
Аудио поток 1: LPCM Audio English 2.0 / 48 kHz / 2304 kbps / 24-bit
Аудио поток 2: DTS-HD Master Audio English 5.1 / 48 kHz / 3797 kbps / 24-bit (DTS Core: 5.1 / 48 kHz / 1509 kbps / 24-bit)

BDInfo Report

DISC INFO:
Disc Title: WAR_REQUIEMDisc Size: 21,218,945,291 bytesProtection: AACSBD-Java: NoBDInfo: 0.5.8
PLAYLIST REPORT:
Name: 00000.MPLSLength: 1:36:50.171 (h:m:s.ms)Size: 20,034,349,056 bytesTotal Bitrate: 27.59 Mbps
VIDEO:
Codec Bitrate Description----- ------- -----------MPEG-4 AVC Video 19951 kbps 1080i / 29.970 fps / 16:9 / High Profile 4.1
AUDIO:
Codec Language Bitrate Description----- -------- ------- -----------LPCM Audio English 2304 kbps 2.0 / 48 kHz / 2304 kbps / 24-bitDTS-HD Master Audio English 3797 kbps 5.1 / 48 kHz / 3797 kbps / 24-bit (DTS Core: 5.1 / 48 kHz / 1509 kbps / 24-bit)
SUBTITLES:
Codec Language Bitrate Description----- -------- ------- -----------Presentation Graphics English 7.551 kbpsPresentation Graphics German 8.573 kbpsPresentation Graphics French 8.402 kbpsPresentation Graphics Spanish 8.130 kbps
FILES:
Name Time In Length Size Total Bitrate---- ------- ------ ---- -------------00000.M2TS 0:00:00.000 1:36:35.790 20,033,224,704 27,65200006.M2TS 1:36:35.790 0:00:14.047 1,112,064 63300005.M2TS 1:36:49.837 0:00:00.333 12,288 295



Показать сообщения:    

Текущее время: 10-Дек 11:51

Часовой пояс: UTC + 3


Вы не можете начинать темы
Вы не можете отвечать на сообщения
Вы не можете редактировать свои сообщения
Вы не можете удалять свои сообщения
Вы не можете голосовать в опросах
Вы не можете прикреплять файлы к сообщениям
Вы не можете скачивать файлы