Classix goes Jazz - Jazz Open Stuttgart (Gregor Hubner, Ralf Schmidt, George Gershwin, Steffen Schorn, Helge Sunde, Libor Sima, SWR Big Band, Radio-Sinfonieorchester Stuttgart, Wayne Marshall, Morten Schuldt-Jensen [2014, Classical / Jazz, HDTV 720p]


 

[Цитировать]

Classix goes Jazz
Jazz Open Stuttgart 2014
Radio-Sinfonieorchester Stuttgart des SWR • Morten Schuldt-Jensen

-
Год выпуска: 2014
Лейбл: SWR
Жанр: Classical / Jazz
Продолжительность: 01:44:22
Язык: немецкий (Götz Alsmann - moderation)
Режиссер: Victor Grandits
Исполнители:
SWR Big Band
SWR Vokalensemble Stuttgart
Radio-Sinfonieorchester Stuttgart des SWR
Wayne Marshall - solist (piano) & dirigent
Morten Schuldt-Jensen - dirigent
Треклист:
Gregor Hübner - Clockwork Interrupted - für Big Band und Orchester
Ralf Schmidt - Solveigssons - für Chor und Big Band
George Gershwin - Concerto in F - für Klavier und Orchester
Steffen Schorn - Three Pictures - Konzert für Sinfonieorchester und Big Band
Helge Sunde - 3 Arrangements - für Chor und Big Band
Libor Sima - I Am The Drum - für Chor und Big Band und Orchester
Доп. информация:
Jazz Open Stuttgart, aus der Liederhalle Stuttgart, Juli 2014
Качество видео: HDTV 720p
Контейнер: TS
Видео кодек: H.264
Аудио кодек: AC3
Видео поток: 12.3 Mbps, 1280*720 (16:9), at 50.000 fps, AVC (High@L4.0) (CABAC / 6 Ref Frames)
Аудио поток: German, 256 Kbps, 48.0 KHz, 2 channels, MPEG Audio (Version 1) (Layer 2)
Аудио 2: 192 Kbps, 48.0 KHz, 2 channels, MPEG Audio (Version 1) (Layer 2)
Аудио 3: German, 448 Kbps, 48.0 KHz, 16 bits, 2 channels, AC-3
Аудио 4: Multiple languages, 192 Kbps, 48.0 KHz, 2 channels, MPEG Audio (Version 1) (Layer 2)
Источник: Digital Satellite > SkyStar HD2 (TechniSat) > raw data to HDD > Cypheros TS-Doctor > ts

MediaInfo

GeneralID : 8900 (0x22C4)Complete name : C:\rutracker.org_HD\3sat HD_Classix goes Jazz - Jazz Open Stuttgart 2014.tsFormat : MPEG-TSFile size : 10.3 GiBDuration : 1h 44mnOverall bit rate mode : VariableOverall bit rate : 14.1 Mbps
VideoID : 6510 (0x196E)Menu ID : 11150 (0x2B8E)Format : AVCFormat/Info : Advanced Video CodecFormat profile : High@L4.0Format settings, CABAC : YesFormat settings, ReFrames : 6 framesCodec ID : 27Duration : 1h 44mnBit rate : 12.3 MbpsWidth : 1 280 pixelsHeight : 720 pixelsDisplay aspect ratio : 16:9Frame rate : 50.000 fpsColor space : YUVChroma subsampling : 4:2:0Bit depth : 8 bitsScan type : ProgressiveBits/(Pixel*Frame) : 0.266Stream size : 8.95 GiB (87%)Color primaries : BT.709Transfer characteristics : BT.709Matrix coefficients : BT.709
Audio #1ID : 6520 (0x1978)Menu ID : 11150 (0x2B8E)Format : MPEG AudioFormat version : Version 1Format profile : Layer 2Codec ID : 3Duration : 1h 44mnBit rate mode : ConstantBit rate : 256 KbpsChannel(s) : 2 channelsSampling rate : 48.0 KHzCompression mode : LossyDelay relative to video : -571msStream size : 191 MiB (2%)Language : German
Audio #2ID : 6521 (0x1979)Menu ID : 11150 (0x2B8E)Format : MPEG AudioFormat version : Version 1Format profile : Layer 2Codec ID : 3Duration : 1h 44mnBit rate mode : ConstantBit rate : 192 KbpsChannel(s) : 2 channelsSampling rate : 48.0 KHzCompression mode : LossyDelay relative to video : -571msStream size : 143 MiB (1%)
Audio #3ID : 6522 (0x197A)Menu ID : 11150 (0x2B8E)Format : AC-3Format/Info : Audio Coding 3Mode extension : CM (complete main)Format settings, Endianness : BigCodec ID : 6Duration : 1h 44mnBit rate mode : ConstantBit rate : 448 KbpsChannel(s) : 2 channelsChannel positions : Front: L RSampling rate : 48.0 KHzBit depth : 16 bitsCompression mode : LossyDelay relative to video : -613msStream size : 335 MiB (3%)Language : German
Audio #4ID : 6523 (0x197B)Menu ID : 11150 (0x2B8E)Format : MPEG AudioFormat version : Version 1Format profile : Layer 2Codec ID : 3Duration : 1h 44mnBit rate mode : ConstantBit rate : 192 KbpsChannel(s) : 2 channelsSampling rate : 48.0 KHzCompression mode : LossyDelay relative to video : -611msStream size : 143 MiB (1%)Language : Multiple languages
... info ...">

Скриншоты ... info ...


Classix goes Jazz
Jazz Open Stuttgart, Juli 2014
Orchester: SWR Big Band, SWR Vokalensemble Stuttgart, Radio-Sinfonieorchester, Stuttgart des SWR
Premiere: Die drei Stuttgarter Ensembles des Südwestrundfunks - das Radio-Sinfonieorchester Stuttgart des SWR, die SWR Big Band und das SWR Vokalensemble Stuttgart - vereinen sich erstmals für ein gemeinsames Konzert auf der Bühne der Liederhalle. Ein Highlight des Programms ist das populäre Klavierkonzert "Concerto in F" von George Gershwin. Solist ist Wayne Marshall, er dirigiert von den Klaviertasten aus das RSO Stuttgart. Im großen Finale vereinen sich schließlich alle drei Ensembles in der SWR-Auftragskomposition "I am the drum" für Chor, Big Band und Orchester von Libor Sima. Präsentiert wird die Veranstaltung von Götz Alsmann, der auf unterhaltsame Art und Weise zwischen den unterschiedlichen musikalischen Stilen vermittelt.
"Classix goes Jazz" zeigt die Premiere des Konzerts der drei Stuttgarter Ensembles des Südwestrundfunks von den "Jazz Open Stuttgart" 2014. (ARD/SWR)
~ 3sat.de



Показать сообщения:    

Текущее время: 05-Дек 01:19

Часовой пояс: UTC + 3


Вы не можете начинать темы
Вы не можете отвечать на сообщения
Вы не можете редактировать свои сообщения
Вы не можете удалять свои сообщения
Вы не можете голосовать в опросах
Вы не можете прикреплять файлы к сообщениям
Вы не можете скачивать файлы