Beethoven - Missa Solemnis in D major, Op. 123 (Marlis Petersen, Elisabeth Kulman, Werner Gura, Gerald Finley, Netherlands Radio Choir, Royal Concertgebouw Orchestra, Nikolaus Harnoncourt) [2012, Classical, Blu-ray]


 

[Цитировать]

Ludwig van Beethoven - Missa Solemnis in D major, Op. 123 - Royal Concertgebouw Orchestra, Nikolaus Harnoncourt
Год выпуска: 2012
Лейбл: C Major, RCO Live, Unitel Classica
Страна-производитель: EU
Жанр: Classical
Продолжительность: 01:34:13
Язык: Латинский
Перевод: Нет
Субтитры: Latin, English, German, French, Spanish, Korean, Chinese, Japanese
Режиссер: Joost Honselaar
Исполнители:
Marlis Petersen (soprano)
Elisabeth Kulman (alto)
Werner Güra (tenor)
Gerald Finley (baritone)
Netherlands Radio Choir
Royal Concertgebouw Orchestra
Nikolaus Harnoncourt
Треклист:
Ludwig van Beethoven (1770-1827)
Missa Solemnis in D major, Op. 123
Recorded live from the Royal Concertgebouw, April 2012.
Доп. информация: источник hdclub, релизер BLUE_LIFE
Качество видео: Blu-ray
Формат/Контейнер: BDMV
Видео кодек: H.264 - MPEG-4 AVC
Аудио кодек: LPCM, DTS-HD
Видео поток: MPEG-4 AVC Video 20949 kbps 1080i / 29.970 fps / 16:9 / High Profile 4.1
Аудио поток 1: LPCM Audio Latin 2.0 / 48 kHz / 2304 kbps / 24-bit
Аудио поток 2: DTS-HD Master Audio Latin 5.0 / 48 kHz / 3717 kbps / 24-bit (DTS Core: 5.0 / 48 kHz / 1509 kbps / 24-bit)

BDInfo Report

DISC INFO:
Disc Title: BEETHOVEN MISSA SOLEMNISDisc Size: 21,963,940,537 bytesProtection: AACSBD-Java: NoBDInfo: 0.5.8
PLAYLIST REPORT:
Name: 00001.MPLSLength: 1:34:27.561 (h:m:s.ms)Size: 20,208,138,240 bytesTotal Bitrate: 28.52 Mbps
VIDEO:
Codec Bitrate Description----- ------- -----------MPEG-4 AVC Video 20949 kbps 1080i / 29.970 fps / 16:9 / High Profile 4.1
AUDIO:
Codec Language Bitrate Description----- -------- ------- -----------LPCM Audio Latin 2304 kbps 2.0 / 48 kHz / 2304 kbps / 24-bitDTS-HD Master Audio Latin 3717 kbps 5.0 / 48 kHz / 3717 kbps / 24-bit (DTS Core: 5.0 / 48 kHz / 1509 kbps / 24-bit)
SUBTITLES:
Codec Language Bitrate Description----- -------- ------- -----------Presentation Graphics Latin 2.055 kbpsPresentation Graphics English 2.295 kbpsPresentation Graphics German 2.518 kbpsPresentation Graphics French 2.250 kbpsPresentation Graphics Spanish 2.156 kbpsPresentation Graphics Chinese 1.788 kbpsPresentation Graphics Korean 1.898 kbpsPresentation Graphics Japanese 1.715 kbps
FILES:
Name Time In Length Size Total Bitrate---- ------- ------ ---- -------------00001.M2TS 0:00:00.000 1:34:12.480 20,200,101,888 28,58900000.M2TS 1:34:12.480 0:00:09.042 4,823,040 4,26700005.M2TS 1:34:21.522 0:00:06.039 3,213,312 4,256



Показать сообщения:    

Текущее время: 07-Дек 11:35

Часовой пояс: UTC + 3


Вы не можете начинать темы
Вы не можете отвечать на сообщения
Вы не можете редактировать свои сообщения
Вы не можете удалять свои сообщения
Вы не можете голосовать в опросах
Вы не можете прикреплять файлы к сообщениям
Вы не можете скачивать файлы