Robert Schumann at Pier2 - The Complete Symphonies Nos. 1-4 - The Deutsche Kammerphilharmonie Bremen, Paavo Jarvi (Christian Berger) [2012, Classical, Symphony, Blu-ray]


 

[Цитировать]

Robert Schumann at Pier2 - The Symphonies - The Deutsche Kammerphilharmonie Bremen, Paavo Järvi
Год выпуска: 2012
Лейбл: C Major, Deutsche Welle, Unitel Classica
Страна-производитель: Австрия
Жанр: Classical, Symphony
Продолжительность: 02:26:00+01:38:11
Язык: Английский (Concert Film)
Перевод: Нет
Субтитры: English, German, French, Spanish, Chinese, Korean (Concert Film)
Режиссер: Christian Berger
Исполнители:
Die Deutsche Kammerphilharmonie Bremen
Paavo Järvi
Треклист:
Robert Schumann (1810 – 1856)
Symphony No. 1 in B flat major, Op. 38, “Spring” [35:00]
Symphony No. 2 in C major, Op. 61 [40:50]
Symphony No. 3 in E flat major, Op. 97, “Rhenish” [36:05]
Symphony No. 4 in D minor, Op. 120 [33:50]
Recorded live at Pier2, Bremen, 2011.
Schumann at Pier2 - a Concert Film by Christian Berger with Paavo Järvi and The Deutsche Kammerphilharmonie [97:37]
Описание:
Запись четырех симфоний Шумана, сделанная на "втором пирсе", бывший верфи в гавани Бремена.
В аудитории, где обычно проходят поп- и рок-концерты, молодым слушателям был представлен результат работы оркестра и дирижера.
Документальный фильм о записи рассказывает об идее проекта и содержит фрагменты репетиций,
комментарии Пааво Ярви о симфониях и интерпретации, биографические сведения о Р. Шумане и кадры музыкантов, которые объясняют и играют ключевые темы.
Доп. информация: источник hdclub, релизер BLUE_LIFE
Качество видео: Blu-ray
Формат/Контейнер: BDMV
Видео кодек: MPEG-4 AVC
Аудио кодек: LPCM, DTS-HD
Видео поток: MPEG-4 AVC Video 14978 kbps 1080i / 29.970 fps / 16:9 / High Profile 4.1
Аудио поток 1: LPCM Audio 2.0 / 48 kHz / 2304 kbps / 24-bit
Аудио поток 2: DTS-HD Master Audio 5.1 / 48 kHz / 4263 kbps / 24-bit (DTS Core: 5.1 / 48 kHz / 1509 kbps / 24-bit)

BDInfo Report

DISC INFO:
Disc Title: SCHUMANN AT PIER2Disc Size: 45,854,587,675 bytesProtection: AACSBD-Java: NoBDInfo: 0.5.8
PLAYLIST REPORT:
Name: 00001.MPLSLength: 2:26:00.151 (h:m:s.ms)Size: 25,019,461,632 bytesTotal Bitrate: 22.85 Mbps
VIDEO:
Codec Bitrate Description----- ------- -----------MPEG-4 AVC Video 14978 kbps 1080i / 29.970 fps / 16:9 / High Profile 4.1
AUDIO:
Codec Language Bitrate Description----- -------- ------- -----------LPCM Audio Undetermined 2304 kbps 2.0 / 48 kHz / 2304 kbps / 24-bitDTS-HD Master Audio Undetermined 4263 kbps 5.1 / 48 kHz / 4263 kbps / 24-bit (DTS Core: 5.1 / 48 kHz / 1509 kbps / 24-bit)
FILES:
Name Time In Length Size Total Bitrate---- ------- ------ ---- -------------00001.M2TS 0:00:00.000 0:35:00.164 5,998,903,296 22,85100014.M2TS 0:35:00.164 0:40:50.147 7,009,241,088 22,88600015.M2TS 1:15:50.312 0:36:04.428 6,185,951,232 22,86400016.M2TS 1:51:54.741 0:33:50.328 5,817,329,664 22,92200000.M2TS 2:25:45.069 0:00:09.042 4,823,040 4,26700005.M2TS 2:25:54.111 0:00:06.039 3,213,312 4,256
PLAYLIST REPORT:
Name: 00009.MPLSLength: 1:38:11.252 (h:m:s.ms)Size: 16,249,700,352 bytesTotal Bitrate: 22.07 Mbps
VIDEO:
Codec Bitrate Description----- ------- -----------MPEG-4 AVC Video 14971 kbps 1080i / 29.970 fps / 16:9 / High Profile 4.1
AUDIO:
Codec Language Bitrate Description----- -------- ------- -----------LPCM Audio Undetermined 2304 kbps 2.0 / 48 kHz / 2304 kbps / 24-bitDTS-HD Master Audio Undetermined 3420 kbps 5.1 / 48 kHz / 3420 kbps / 24-bit (DTS Core: 5.1 / 48 kHz / 1509 kbps / 24-bit)
SUBTITLES:
Codec Language Bitrate Description----- -------- ------- -----------Presentation Graphics English 4.614 kbpsPresentation Graphics German 17.825 kbpsPresentation Graphics French 20.425 kbpsPresentation Graphics Spanish 23.298 kbpsPresentation Graphics Chinese 16.892 kbpsPresentation Graphics Korean 15.683 kbps



Показать сообщения:    

Текущее время: 04-Дек 21:18

Часовой пояс: UTC + 3


Вы не можете начинать темы
Вы не можете отвечать на сообщения
Вы не можете редактировать свои сообщения
Вы не можете удалять свои сообщения
Вы не можете голосовать в опросах
Вы не можете прикреплять файлы к сообщениям
Вы не можете скачивать файлы