Khatia Buniatishvili - Das Waldkonzert (Bach, Chopin, Debussy, Kancheli, Brahms, Чайковский, Ravel, Скрябин, Dvorak, Piazzolla) [2013, Classical / Piano, HDTV 720p]


 

[Цитировать]

Khatia Buniatishvili
Das Waldkonzert

-
Год выпуска: 2013
Лейбл: Bernhard Fleischner, ZDF, 3sat, DW
Жанр: Classical / Piano
Продолжительность: 00:57:25
Исполнители:
Khatia Buniatishvili - piano
Gvantsa Buniatishvili - piano (Slawischer Tanz, Ungarischer Tanz, Improvisation des Libertango)
Треклист:
Johann Sebastian Bach - "Schafe können sicher weiden"
Aus der Cantata BWV 208 "Was mir behagt, ist nur die muntre Jagd"
Frederic Chopin - Scherzo Nr. 2, op 31
Claude Debussy - Clair de lune, Nr. 3 aus der Suite Bergamasque
Giya Kancheli - "Wenn Mandeln blühen"
Lied aus dem Film von Lana Gogoberidze
Johannes Brahms - Intermezzo op, 117 / 2
Pyotr Tchaikovsky - Oktober, Nr. 10 aus "Die Jahreszeiten" , op. 37b
Maurice Ravel - La Valse
Alexander Scriabin - Etude op. 2 / 1
Frederic Chopin - Etude op. 25 / 7
Traditional / Khatia Buniatishvili - Vagiorko mai / Liebst du mich nicht?
Antonin Dvorak - Slawischer Tanz op. 72 / 2, (Allegretto grazioso)
Johannes Brahms - Ungarischer Tanz Nr. 1
Astor Piazzolla - Improvisation des Libertango
Доп. информация:
Khatia - Das Waldkonzert 3sat.de
Khatia Buniatishvili Official Site
Khatia Buniatishvili from Wikipedia, the free encyclopedia
Качество видео: HDTV 720p
Контейнер: TS
Видео кодек: H.264
Аудио кодек: AC3
Видео поток: 11.5 Mbps, 1280*720 (16:9), at 50.000 fps, AVC (High@L4.0) (CABAC / 6 Ref Frames)
Аудио поток: German, 256 Kbps, 48.0 KHz, 2 channels, MPEG Audio (Version 1) (Layer 2)
Аудио 2: 192 Kbps, 48.0 KHz, 2 channels, MPEG Audio (Version 1) (Layer 2)
Аудио 3: German, 448 Kbps, 48.0 KHz, 16 bits, 2 channels, AC-3
Аудио 4: Multiple languages, 192 Kbps, 48.0 KHz, 2 channels, MPEG Audio (Version 1) (Layer 2)
Источник: Digital Satellite > SkyStar HD2 (TechniSat) > raw data to HDD > Cypheros TS-Doctor > ts

MediaInfo

GeneralID : 8900 (0x22C4)Complete name : C:\HD\3sat HD_Khatia Buniatishvili - Das Waldkonzert 2013.tsFormat : MPEG-TSFile size : 5.33 GiBDuration : 57mn 25sOverall bit rate mode : VariableOverall bit rate : 13.3 Mbps
VideoID : 6510 (0x196E)Menu ID : 11150 (0x2B8E)Format : AVCFormat/Info : Advanced Video CodecFormat profile : High@L4.0Format settings, CABAC : YesFormat settings, ReFrames : 6 framesFormat settings, GOP : M=4, N=29Codec ID : 27Duration : 57mn 25sBit rate : 11.5 MbpsWidth : 1 280 pixelsHeight : 720 pixelsDisplay aspect ratio : 16:9Frame rate : 50.000 fpsColor space : YUVChroma subsampling : 4:2:0Bit depth : 8 bitsScan type : ProgressiveBits/(Pixel*Frame) : 0.250Stream size : 4.62 GiB (87%)Color primaries : BT.709Transfer characteristics : BT.709Matrix coefficients : BT.709
Audio #1ID : 6520 (0x1978)Menu ID : 11150 (0x2B8E)Format : MPEG AudioFormat version : Version 1Format profile : Layer 2Codec ID : 3Duration : 57mn 25sBit rate mode : ConstantBit rate : 256 KbpsChannel(s) : 2 channelsSampling rate : 48.0 KHzCompression mode : LossyDelay relative to video : -411msStream size : 105 MiB (2%)Language : German
Audio #2ID : 6521 (0x1979)Menu ID : 11150 (0x2B8E)Format : MPEG AudioFormat version : Version 1Format profile : Layer 2Codec ID : 3Duration : 57mn 25sBit rate mode : ConstantBit rate : 192 KbpsChannel(s) : 2 channelsSampling rate : 48.0 KHzCompression mode : LossyDelay relative to video : -411msStream size : 78.9 MiB (1%)
Audio #3ID : 6522 (0x197A)Menu ID : 11150 (0x2B8E)Format : AC-3Format/Info : Audio Coding 3Mode extension : CM (complete main)Format settings, Endianness : BigCodec ID : 6Duration : 57mn 25sBit rate mode : ConstantBit rate : 448 KbpsChannel(s) : 2 channelsChannel positions : Front: L RSampling rate : 48.0 KHzBit depth : 16 bitsCompression mode : LossyDelay relative to video : -454msStream size : 184 MiB (3%)Language : German
Audio #4ID : 6523 (0x197B)Menu ID : 11150 (0x2B8E)Format : MPEG AudioFormat version : Version 1Format profile : Layer 2Codec ID : 3Duration : 57mn 25sBit rate mode : ConstantBit rate : 192 KbpsChannel(s) : 2 channelsSampling rate : 48.0 KHzCompression mode : LossyDelay relative to video : -451msStream size : 78.9 MiB (1%)Language : Multiple languages
... info ...">

Скриншоты ... info ...


Khatia - Das Waldkonzert
In "Khatia - Das Waldkonzert" spielt die Pianistin vor einem kleinen Publikum Stücke von J. S. Bach, Chopin, Ravel, Brahms und erzählt von ihrer Leidenschaft für das Leben und von ihrer Begeisterung für die Musik.
Khatia Buniatishvili ist 27 Jahre jung, stammt aus Georgien, ist hübsch, temperamentvoll, abenteuerlustig und ein Star am Klavier. Sie konzertiert mit den großen Orchestern der Welt und hat bereits zahlreiche internationale Preise gewonnen. 2012 erhielt sie den Echo Klassik in der Sparte Nachwuchskünstlerin. Für dieses außergewöhnliche Konzert hat Khatia Buniatishvili ihren Flügel mitten im Wald plaziert. Ein Ort voller Magie und Romantik.
~ 3sat.de



Показать сообщения:    

Текущее время: 19-Янв 16:03

Часовой пояс: UTC + 3


Вы не можете начинать темы
Вы не можете отвечать на сообщения
Вы не можете редактировать свои сообщения
Вы не можете удалять свои сообщения
Вы не можете голосовать в опросах
Вы не можете прикреплять файлы к сообщениям
Вы не можете скачивать файлы