Сергей Рахманинов (Sergei Rachmaninoff) - Piano Concerto No. 2; Ludwig van Beethoven (Бетховен) - Symphony No. 4 (WDR Sinfonieorchester Koln, Jukka-Pekka Saraste, Anna Vinnitskaya) [2014, Classical / Orchestral, HDTV 720p] 3sat


 

[Цитировать]

Sergej Rachmaninow - Konzert für Klavier und Orchester Nr. 2
Ludwig van Beethoven - Sinfonie Nr. 4

WDR Sinfonieorchester Köln • Jukka-Pekka Saraste

-
Год выпуска: 2014
Лейбл: WDR
Жанр: Classical / Orchestral
Продолжительность: 01:21:20
Режиссер: Thorsten Fricke
Исполнители:
Jukka-Pekka Saraste - leitung
WDR Sinfonieorchester Köln
Anna Vinnitskaya - klavier
Треклист:
Sergei Rachmaninow
- Konzert für Klavier und Orchester Nr. 2 c-Moll op. 18
Alexander Siloti / Johann Sebastian Bach
- Präludium h-Moll
Ludwig van Beethoven
- Sinfonie Nr. 4 B-Dur op. 60
Jean Sibelius
- Valse triste
Доп. информация:
Aus der Kölner Philharmonie
Saraste dirigiert Rachmaninow und Beethoven 3sat.de
Kölner Philharmonie Official Site
Jukka-Pekka Saraste Official Site
Jukka-Pekka Saraste from Wikipedia, the free encyclopedia
Jukka-Pekka Saraste материал из Википедии - свободной энциклопедии
Anna Vinnitskaya Official Site
Anna Vinnitskaya from Wikipedia, the free encyclopedia
Качество видео: HDTV 720p
Контейнер: TS
Видео кодек: H.264
Аудио кодек: AC3
Видео поток: 11.5 Mbps, 1280*720 (16:9), at 50.000 fps, AVC (High@L4.0) (CABAC / 6 Ref Frames)
Аудио поток: German, 256 Kbps, 48.0 KHz, 2 channels, MPEG Audio (Version 1) (Layer 2)
Аудио 2: 192 Kbps, 48.0 KHz, 2 channels, MPEG Audio (Version 1) (Layer 2)
Аудио 3: German, 448 Kbps, 48.0 KHz, 16 bits, 2 channels, AC-3
Аудио 4: Multiple languages, 192 Kbps, 48.0 KHz, 2 channels, MPEG Audio (Version 1) (Layer 2)
Источник: Digital Satellite > SkyStar HD2 (TechniSat) > raw data to HDD > Cypheros TS-Doctor > ts

MediaInfo

GeneralID : 8900 (0x22C4)Complete name : C:\rutracker.org_HD\3sat HD_WDR Sinfonieorchester Koln (Jukka-Pekka Saraste) 2014.tsFormat : MPEG-TSFile size : 7.52 GiBDuration : 1h 21mnOverall bit rate mode : VariableOverall bit rate : 13.2 Mbps
VideoID : 6510 (0x196E)Menu ID : 11150 (0x2B8E)Format : AVCFormat/Info : Advanced Video CodecFormat profile : High@L4.0Format settings, CABAC : YesFormat settings, ReFrames : 6 framesCodec ID : 27Duration : 1h 21mnBit rate : 11.5 MbpsWidth : 1 280 pixelsHeight : 720 pixelsDisplay aspect ratio : 16:9Frame rate : 50.000 fpsColor space : YUVChroma subsampling : 4:2:0Bit depth : 8 bitsScan type : ProgressiveBits/(Pixel*Frame) : 0.249Stream size : 6.53 GiB (87%)Color primaries : BT.709Transfer characteristics : BT.709Matrix coefficients : BT.709
Audio #1ID : 6520 (0x1978)Menu ID : 11150 (0x2B8E)Format : MPEG AudioFormat version : Version 1Format profile : Layer 2Codec ID : 3Duration : 1h 21mnBit rate mode : ConstantBit rate : 256 KbpsChannel(s) : 2 channelsSampling rate : 48.0 KHzCompression mode : LossyDelay relative to video : -671msStream size : 149 MiB (2%)Language : German
Audio #2ID : 6521 (0x1979)Menu ID : 11150 (0x2B8E)Format : MPEG AudioFormat version : Version 1Format profile : Layer 2Codec ID : 3Duration : 1h 21mnBit rate mode : ConstantBit rate : 192 KbpsChannel(s) : 2 channelsSampling rate : 48.0 KHzCompression mode : LossyDelay relative to video : -671msStream size : 112 MiB (1%)
Audio #3ID : 6522 (0x197A)Menu ID : 11150 (0x2B8E)Format : AC-3Format/Info : Audio Coding 3Mode extension : CM (complete main)Format settings, Endianness : BigCodec ID : 6Duration : 1h 21mnBit rate mode : ConstantBit rate : 448 KbpsChannel(s) : 2 channelsChannel positions : Front: L RSampling rate : 48.0 KHzBit depth : 16 bitsCompression mode : LossyDelay relative to video : -593msStream size : 261 MiB (3%)Language : German
Audio #4ID : 6523 (0x197B)Menu ID : 11150 (0x2B8E)Format : MPEG AudioFormat version : Version 1Format profile : Layer 2Codec ID : 3Duration : 1h 21mnBit rate mode : ConstantBit rate : 192 KbpsChannel(s) : 2 channelsSampling rate : 48.0 KHzCompression mode : LossyDelay relative to video : -591msStream size : 112 MiB (1%)Language : Multiple languages
... info ...">

Скриншоты ... info ...


Saraste dirigiert Rachmaninow und Beethoven / Aus der Philharmonie Köln, 2014
Das WDR Sinfonieorchester sorgte zusammen mit seinem Chefdirigenten Jukka-Pekka Saraste und der russischen Pianistin Anna Vinnitskaya für einen rauschenden Konzertabend. Auf dem Programm: Rachmaninow und Beethoven.
Die von Jewgenij Koroliow ausgebildete und nun von Alfred Brendel geförderte Russin Anna Vinnitskaya hat schon früh in ihrer Heimat gelernt, das "Schlaginstrument" Klavier zum Singen zu bringen und ihm unerhörte Farben und Nuancen zu entlocken. Mit ihrer Echo-Prämierung 2011 und ihrem umjubelten Debüt beim letztjährigen Klavier-Festival Ruhr hat die in jeder Beziehung ausgezeichnete Pianistin und Professorin auch hierzulande für Aufsehen gesorgt.
In der Kölner Philharmonie zeigt die 30-jährige Anna Vinnitskaya ihre Kunst mit dem zweiten Klavierkonzert ihres Landsmannes Sergej Rachmaninow. Chefdirigent Jukka-Pekka Saraste setzt dieser virtuosen Bravour das geschliffene Brio in Beethovens vierter Sinfonie entgegen.
~ 3sat.de



Показать сообщения:    

Текущее время: 04-Дек 00:52

Часовой пояс: UTC + 3


Вы не можете начинать темы
Вы не можете отвечать на сообщения
Вы не можете редактировать свои сообщения
Вы не можете удалять свои сообщения
Вы не можете голосовать в опросах
Вы не можете прикреплять файлы к сообщениям
Вы не можете скачивать файлы