Wynton Marsalis "All Rise" - MDR Musiksommer (hr Bigband, MDR Rundfunkchor, MDR Sinfonieorchester, Kristjan Jarvi) [2014, Classical / Ragtime / Swing / Marsch / Gospel / Fusion, HDTV 720p]


 

[Цитировать]

Wynton Marsalis
All Rise

MDR Musiksommer 2014
hr Bigband • MDR Rundfunkchor • MDR Sinfonieorchester
Kristjan Järvi

-
Год выпуска: 2014
Лейбл: MDR
Жанр: Classical / Ragtime / Swing / Marsch / Gospel / Fusion
Продолжительность: 01:48:08
Режиссер: Tilo Krause
Исполнители:
NaGuanda Nobles - sopran
LaToya Lain - mezzosopran
David B.Whitley - tenor
Benjamin Polite - bass
hr Bigband
MDR Rundfunkchor
MDR Sinfonieorchester
Kristjan Järvi - dirigent
Треклист:
Wynton Marsalis - All Rise
I. Jubal Step
II. A Hundred and a Hundred, a Hundred and Twelve
III. Go Slow (But Don't Stop)
IV. Wild Strumming of Fiddle
V. Save Us
VI. Cried, Shouted, Then Sung
VII. Look Beyond
VIII. The Halls of Erudition & Scholarship
IX. El 'Gran' Baile de la Reina
X. Expressbrown Local
XI. Saturday Night Slow Drag
XII. I Am (Don't You Run From Me)
Доп. информация:
Eröffnungskonzert des MDR Musiksommers, Juni 2014, Messehalle Erfurt, Germany
Eröffnungskonzert des MDR Musiksommers - Wynton Marsalis' "All Rise" 3sat.de
MDR Sinfonieorchester Official Site
Kristjan Järvi Official Site
Kristjan Järvi from Wikipedia, the free encyclopedia
Качество видео: HDTV 720p
Контейнер: TS
Видео кодек: H.264
Аудио кодек: AC3
Видео поток: 11.7 Mbps, 1280*720 (16:9), at 50.000 fps, AVC (High@L4.0) (CABAC / 6 Ref Frames)
Аудио поток: German, 256 Kbps, 48.0 KHz, 2 channels, MPEG Audio (Version 1) (Layer 2)
Аудио 2: 192 Kbps, 48.0 KHz, 2 channels, MPEG Audio (Version 1) (Layer 2)
Аудио 3: German, 448 Kbps, 48.0 KHz, 16 bits, 2 channels, AC-3
Аудио 4: Multiple languages, 192 Kbps, 48.0 KHz, 2 channels, MPEG Audio (Version 1) (Layer 2)
Источник: Digital Satellite > SkyStar HD2 (TechniSat) > raw data to HDD > Cypheros TS-Doctor > ts

MediaInfo

GeneralID : 8900 (0x22C4)Complete name : C:\rutracker.org_HD\3sat HD_Wynton Marsalis ''All Rise'' - MDR Musiksommer 2014.tsFormat : MPEG-TSFile size : 10.2 GiBDuration : 1h 48mnOverall bit rate mode : VariableOverall bit rate : 13.5 Mbps
VideoID : 6510 (0x196E)Menu ID : 11150 (0x2B8E)Format : AVCFormat/Info : Advanced Video CodecFormat profile : High@L4.0Format settings, CABAC : YesFormat settings, ReFrames : 6 framesFormat settings, GOP : M=4, N=29Codec ID : 27Duration : 1h 48mnBit rate : 11.7 MbpsWidth : 1 280 pixelsHeight : 720 pixelsDisplay aspect ratio : 16:9Frame rate : 50.000 fpsColor space : YUVChroma subsampling : 4:2:0Bit depth : 8 bitsScan type : ProgressiveBits/(Pixel*Frame) : 0.255Stream size : 8.87 GiB (87%)Color primaries : BT.709Transfer characteristics : BT.709Matrix coefficients : BT.709
Audio #1ID : 6520 (0x1978)Menu ID : 11150 (0x2B8E)Format : MPEG AudioFormat version : Version 1Format profile : Layer 2Codec ID : 3Duration : 1h 48mnBit rate mode : ConstantBit rate : 256 KbpsChannel(s) : 2 channelsSampling rate : 48.0 KHzCompression mode : LossyDelay relative to video : -471msStream size : 198 MiB (2%)Language : German
Audio #2ID : 6521 (0x1979)Menu ID : 11150 (0x2B8E)Format : MPEG AudioFormat version : Version 1Format profile : Layer 2Codec ID : 3Duration : 1h 48mnBit rate mode : ConstantBit rate : 192 KbpsChannel(s) : 2 channelsSampling rate : 48.0 KHzCompression mode : LossyDelay relative to video : -471msStream size : 149 MiB (1%)
Audio #3ID : 6522 (0x197A)Menu ID : 11150 (0x2B8E)Format : AC-3Format/Info : Audio Coding 3Mode extension : CM (complete main)Format settings, Endianness : BigCodec ID : 6Duration : 1h 48mnBit rate mode : ConstantBit rate : 448 KbpsChannel(s) : 2 channelsChannel positions : Front: L RSampling rate : 48.0 KHzBit depth : 16 bitsCompression mode : LossyDelay relative to video : -553msStream size : 347 MiB (3%)Language : German
Audio #4ID : 6523 (0x197B)Menu ID : 11150 (0x2B8E)Format : MPEG AudioFormat version : Version 1Format profile : Layer 2Codec ID : 3Duration : 1h 48mnBit rate mode : ConstantBit rate : 192 KbpsChannel(s) : 2 channelsSampling rate : 48.0 KHzCompression mode : LossyDelay relative to video : -511msStream size : 149 MiB (1%)Language : Multiple languages
... info ...">

Скриншоты ... info ...


Der 23. MDR-Musiksommer wird mit einem energiegeladenen Crossover-Konzert in den Hallen der Erfurter Messe eröffnet. In seinem groß angelegten "All Rise", das man als ein Jazz-Oratorium bezeichnen könnte, verknüpft der Jazz-Trompeter und Komponist Wynton Marsalis die unterschiedlichsten Stilrichtungen zu einem genialen Gesamtwerk. Als Jazz-Musiker spielte sich Marsalis zu Weltruhm und komponiert seit vielen Jahren verstärkt für klassische Besetzungen von Sinfonieorchestern und Chören. In "All Rise" - von Kurt Masur für die New Yorker Philharmoniker und das Lincoln Center Jazz Orchestra 1999 in Auftrag gegeben - verschmelzen Ragtime, Klassik, Samba, Swing, Marsch, Gospel und Fugen zu einem quirligen, fulminanten Ganzen. In zwölf Sätzen geht es um persönliche und gesellschaftliche Entwicklungen, um den Weg zur Selbstfindung des Menschen zwischen Konflikt, Schmerz und Freude.
3sat zeigt das "Eröffnungkonzert des MDR Musiksommers", bei dem Wynton Marsalis' "All Rise" vom MDR Sinfonieorchester, der hr Bigband und dem MDR Rundfunkchor unter der Leitung von Kristjan Järvi interpretiert wird.
~ 3sat.de



Показать сообщения:    

Текущее время: 09-Дек 06:57

Часовой пояс: UTC + 3


Вы не можете начинать темы
Вы не можете отвечать на сообщения
Вы не можете редактировать свои сообщения
Вы не можете удалять свои сообщения
Вы не можете голосовать в опросах
Вы не можете прикреплять файлы к сообщениям
Вы не можете скачивать файлы