Jean Sibelius - Aallottaret; Richard Strauss - Vier letzte Lieder; Ludwig van Beethoven - Symphony No. 7 (WDR Sinfonieorchester Koln, Jukka-Pekka Saraste, Measha Brueggergosman) [2013, Classical / Orchestral, HDTV 720p]


 

[Цитировать]

Jean Sibelius - Aallottaret
Richard Strauss - Vier letzte Lieder
Ludwig van Beethoven - Sinfonie Nr. 7

WDR Sinfonieorchester Köln • Jukka-Pekka Saraste

-
Год выпуска: 2013
Лейбл: WDR
Жанр: Classical / Orchestral
Продолжительность: 01:11:43
Режиссер: János Darvas
Исполнители:
Jukka-Pekka Saraste - dirigent
WDR Sinfonieorchester Köln
Measha Brueggergosman - sopran
Треклист:
Jean Sibelius
- Aallottaret (Die Okeaniden) op. 73, Tondichtung für Orchester
Richard Strauss
- Vier letzte Lieder für Sopran und Orchester
Ludwig van Beethoven
- Sinfonie Nr. 7 A-Dur op. 92
Доп. информация:
Aus der Kölner Philharmonie
Kölner Philharmonie Official Site
Jukka-Pekka Saraste Official Site
Jukka-Pekka Saraste from Wikipedia, the free encyclopedia
Jukka-Pekka Saraste материал из Википедии - свободной энциклопедии
Measha Brueggergosman Official Site
Measha Brueggergosman from Wikipedia, the free encyclopedia
Measha Brueggergosman материал из Википедии - свободной энциклопедии
Качество видео: HDTV 720p
Контейнер: TS
Видео кодек: H.264
Аудио кодек: AC3
Видео поток: 12.4 Mbps, 1280*720 (16:9), at 50.000 fps, AVC (High@L4.0) (CABAC / 6 Ref Frames)
Аудио поток: German, 448 Kbps, 48.0 KHz, 16 bits, 2 channels, AC-3
Источник: Digital Satellite > SkyStar HD2 (TechniSat) > raw data to HDD > Cypheros TS-Doctor > VideoReDo TVSuite v4 (cut) > ts

MediaInfo

GeneralID : 1 (0x1)Complete name : C:\rutracker.org_HD\3sat HD_WDR Sinfonieorchester Koln (Jukka-Pekka Saraste) 2013.tsFormat : MPEG-TSFile size : 6.80 GiBDuration : 1h 11mnOverall bit rate mode : VariableOverall bit rate : 13.6 Mbps
VideoID : 6510 (0x196E)Menu ID : 1 (0x1)Format : AVCFormat/Info : Advanced Video CodecFormat profile : High@L4.0Format settings, CABAC : YesFormat settings, ReFrames : 6 framesCodec ID : 27Duration : 1h 11mnBit rate : 12.4 MbpsWidth : 1 280 pixelsHeight : 720 pixelsDisplay aspect ratio : 16:9Frame rate : 50.000 fpsColor space : YUVChroma subsampling : 4:2:0Bit depth : 8 bitsScan type : ProgressiveBits/(Pixel*Frame) : 0.270Stream size : 6.24 GiB (92%)Color primaries : BT.709Transfer characteristics : BT.709Matrix coefficients : BT.709
AudioID : 6522 (0x197A)Menu ID : 1 (0x1)Format : AC-3Format/Info : Audio Coding 3Mode extension : CM (complete main)Format settings, Endianness : BigCodec ID : 6Duration : 1h 11mnBit rate mode : ConstantBit rate : 448 KbpsChannel(s) : 2 channelsChannel positions : Front: L RSampling rate : 48.0 KHzBit depth : 16 bitsCompression mode : LossyStream size : 230 MiB (3%)Language : German



Показать сообщения:    

Текущее время: 05-Дек 07:29

Часовой пояс: UTC + 3


Вы не можете начинать темы
Вы не можете отвечать на сообщения
Вы не можете редактировать свои сообщения
Вы не можете удалять свои сообщения
Вы не можете голосовать в опросах
Вы не можете прикреплять файлы к сообщениям
Вы не можете скачивать файлы